Торрент файл
скачать торрент магнет ссылка Добавлен: 11 янв 2013, 22:11
Размер: 2.24 ГБ
Сидеров: 5
Личеров: 3
Автор

СообщениеДобавлено: 11 янв 2013, 22:11 

Не в сети
Супермодератор
Аватара пользователя
Дата регистрации:
11 апр 2010, 18:10
Спасибо: 5995 / 7
Сообщения: 56685
id="p-25224744-1">Неизвестный / Unknown
«Верни себе свою жизнь»
Год выпуска: 2011
Страна: США, Германия, Канада, Франция, Япония, Великобритания
Жанр: Триллер, драма, детектив
Продолжительность: 01:53:11
Перевод : Профессиональный (дублированный)
Русские субтитры: нет
Режиссёр: Жауме Серра/Jaume Collet-Serra
В ролях: Лиам Нисон, Дайан Крюгер, Дженьюэри Джонс, Эйдан Куинн, Бруно Ганц, Фрэнк Ланджелла, Себастьян Кох, Оливье Шнайдер, Стипе Эрчег, Райнер Бок, Мидо Хамада, Клинг Дайер, Карл Марковиц, Аднан Марал, Торстен Михаэлис, Райнер Селлиен, Петра Хартунг, Майкл Бэрал, Сэнни Ван Хетерен, Херберт Ольшок, Карла Триппель, Петра Шмидт-Шаллер, Аннабель Манденг, Янина Флигер, Фриц Рот, Хейке Ханолд, Кида Рамадан
Описание: В этом фильме рассказывается о мужчине, который после пробуждения от комы обнаруживает, что его личность присвоена другим, и понимает, что никто, даже собственная жена, не верит ему. И тогда при помощи незнакомой молодой женщины-таксистки герой стремится доказать, кто он такой.
Доп. информация:
Исходник:Неизвестный / Unknown / 2011 / ДБ, СТ / Blu-Ray (1080p) (Кинозал)
Качество: BDRip
Формат: *.mp4
Видео кодек: H.264
аудио кодек: ААС
Разрешение: 1024x432
Другие параметры видео: 2500kbit/s; 23.976fps
Аудио 1: Rus 160kbit/s; 2ch; 48KHz
Аудио 2: Eng 160kbit/s; 2ch; 48KHz
MediaInfo
General
Complete name : /Users/imac/HandBrake/Neizvestnyj.2011.x264.BDRip.1024x.m4v
Format : MPEG-4
Format profile : Base Media / Version 2
Codec ID : mp42
File size : 2.24 GiB
Duration : 1h 53mn
Overall bit rate mode : Variable
Overall bit rate : 2 834 Kbps
Movie name : Неизвестный
Performer : Жауме Серра
Genre : Thriller
Recorded date : UTC 2011-02-16 13:00:00
Encoded date : UTC 2012-09-09 00:04:21
Tagged date : UTC 2012-09-09 23:09:04
Writing application : HandBrake 0.9.8 2012071800
Cover : Yes
iTunEXTC : mpaa|PG-13|300|
desc : В этом фильме рассказывается о мужчине, который после пробуждения от комы обнаруживает, что его личность присвоена другим, и понимает, что никто, даже собственная жена, не верит ему.
ldes : В этом фильме рассказывается о мужчине, который после пробуждения от комы обнаруживает, что его личность присвоена другим, и понимает, что никто, даже собственная жена, не верит ему. И тогда при помощи незнакомой молодой женщины-таксистки герой стремится доказать, кто он такой.
stik : 0
iTunMOVI : <?xml version="1.0" encoding="UTF-8"?> / <!DOCTYPE plist PUBLIC "-/Apple/DTD PLIST 1.0/EN" "http://www.apple.com/DTDs/PropertyList-1.0.dtd"> / <plist version="1.0"> / <dict> / <key>cast</key> / <array> / <dict> / <key>name</key> / <string> Лиам Нисон</string> / </dict> / <dict> / <key>name</key> / <string>Дайан Крюгер</string> / </dict> / <dict> / <key>name</key> / <string>Дженьюэри Джонс</string> / </dict> / </array> / <key>directors</key> / <array> / <dict> / <key>name</key> / <string> Жауме Серра</string> / </dict> / </array> / <key>producers</key> / <array> / <dict> / <key>name</key> / <string>Эндрю Рона</string> / </dict> / <dict> / <key>name</key> / <string>Джоэл Силвер</string> / </dict> / <dict> / <key>name</key> / <string>Леонард Голдберг</string> / </dict> / </array> / <key>screenwriters</key> / <array> / <dict> / <key>name</key> / <string>Оливер Бутчер</string> / </dict> / <dict> / <key>name</key> / <string>Стивен Корнуэлл</string> / </dict> / <dict> / <key>name</key> / <string>Дидье ван Ковелер</string> / </dict> / </array> / </dict> / </plist>
tven : 463135
Video
ID : 1
Format : AVC
Format/Info : Advanced Video Codec
Format profile : [email protected]
Format settings, CABAC : Yes
Format settings, ReFrames : 9 frames
Codec ID : avc1
Codec ID/Info : Advanced Video Coding
Duration : 1h 53mn
Bit rate mode : Variable
Bit rate : 2 500 Kbps
Width : 1 024 pixels
Height : 432 pixels
Display aspect ratio : 2.40:1
Frame rate mode : Variable
Frame rate : 23.976 fps
Minimum frame rate : 22.613 fps
Maximum frame rate : 23.981 fps
Color space : YUV
Chroma subsampling : 4:2:0
Bit depth : 8 bits
Scan type : Progressive
Bits/(Pixel*Frame) : 0.236
Stream size : 1.98 GiB (88%)
Writing library : x264 core 120
Encoding settings : cabac=1 / ref=9 / deblock=1:0:0 / analyse=0x3:0x113 / me=umh / subme=9 / psy=1 / psy_rd=1.00:0.00 / mixed_ref=1 / me_range=32 / chroma_me=1 / trellis=1 / 8x8dct=1 / cqm=0 / deadzone=21,11 / fast_pskip=1 / chroma_qp_offset=-2 / threads=12 / sliced_threads=0 / nr=0 / decimate=1 / interlaced=0 / bluray_compat=0 / constrained_intra=0 / bframes=6 / b_pyramid=2 / b_adapt=2 / b_bias=0 / direct=1 / weightb=1 / open_gop=0 / weightp=2 / keyint=240 / keyint_min=24 / scenecut=40 / intra_refresh=0 / rc_lookahead=40 / rc=2pass / mbtree=1 / bitrate=2500 / ratetol=1.0 / qcomp=0.60 / qpmin=3 / qpmax=69 / qpstep=4 / cplxblur=20.0 / qblur=0.5 / ip_ratio=1.40 / aq=1:1.00
Encoded date : UTC 2012-09-09 00:04:21
Tagged date : UTC 2012-09-09 01:47:37
Color primaries : BT.709-5, BT.1361, IEC 61966-2-4, SMPTE RP177
Transfer characteristics : BT.709-5, BT.1361
Matrix coefficients : BT.709-5, BT.1361, IEC 61966-2-4 709, SMPTE RP177
Audio #1
ID : 2
Format : AAC
Format/Info : Advanced Audio Codec
Format profile : LC
Codec ID : 40
Duration : 1h 53mn
Bit rate mode : Variable
Bit rate : 164 Kbps
Maximum bit rate : 265 Kbps
Channel(s) : 2 channels
Channel positions : Front: L R
Sampling rate : 48.0 KHz
Compression mode : Lossy
Stream size : 132 MiB (6%)
Language : Russian
Encoded date : UTC 2012-09-09 00:04:21
Tagged date : UTC 2012-09-09 01:47:37
Audio #2
ID : 3
Format : AAC
Format/Info : Advanced Audio Codec
Format profile : LC
Codec ID : 40
Duration : 1h 53mn
Bit rate mode : Variable
Bit rate : 163 Kbps
Maximum bit rate : 283 Kbps
Channel(s) : 2 channels
Channel positions : Front: L R
Sampling rate : 48.0 KHz
Compression mode : Lossy
Stream size : 132 MiB (6%)
Language : English
Encoded date : UTC 2012-09-09 00:04:21
Tagged date : UTC 2012-09-09 01:47:37
Text
ID : 4
Format : Apple text
Codec ID : text
Duration : 1h 53mn
Bit rate mode : Constant
Bit rate : 0 bps
Stream size : 288 Bytes (0%)
Encoded date : UTC 2012-09-09 00:04:21
Tagged date : UTC 2012-09-09 01:47:37
iTunes meta tag
Encoding Tool: HandBrake 0.9.8 2012071800
Media Kind —Movie
iPad:vendor_id:2011-463135
contentID-463135
Screenwriters: Оливер Бутчер, Стивен Корнуэлл, Дидье ван Ковелер
Producers: Эндрю Рона, Джоэл Силвер, Леонард Голдберг
Director: Жауме Серра
Cast: Лиам Нисон, Дайан Крюгер, Дженьюэри Джонс
Rating: 4
Long Description: В этом фильме рассказывается о мужчине, который после пробуждения от комы обнаруживает, что его личность присвоена другим, и понимает, что никто, даже собственная жена, не верит ему. И тогда при помощи незнакомой молодой женщины-таксистки герой стремится доказать, кто он такой.
Description: В этом фильме рассказывается о мужчине, который после пробуждения от комы обнаруживает, что его личность присвоена другим, и понимает, что никто, даже собственная жена, не верит ему.
Release Date: 2011-02-16T13:00:00Z
Genre: Thriller
Artist: Жауме Серра
Name: Неизвестный
x264 log
x264 [info]: frame I:1942 Avg QP:15.38 size: 72301 PSNR Mean Y:47.43 U:50.13 V:50.42 Avg:48.17 Global:47.84
x264 [info]: frame P:41439 Avg QP:18.25 size: 23885 PSNR Mean Y:45.68 U:49.09 V:49.15 Avg:46.51 Global:45.58
x264 [info]: frame B:119460 Avg QP:20.36 size: 8304 PSNR Mean Y:43.68 U:47.98 V:47.89 Avg:44.64 Global:44.25
x264 [info]: consecutive B-frames: 3.9% 4.9% 7.1% 43.6% 13.7% 17.1% 9.6%
x264 [info]: mb I I16..4: 11.2% 68.0% 20.8%
x264 [info]: mb P I16..4: 3.0% 12.3% 2.7% P16..4: 33.5% 24.2% 14.1% 0.0% 0.0% skip:10.2%
x264 [info]: mb B I16..4: 0.3% 1.5% 0.4% B16..8: 42.4% 11.4% 3.5% direct: 5.5% skip:35.1% L0:43.8% L1:47.2% BI: 9.0%
x264 [info]: 8x8 transform intra:68.7% inter:65.0%
x264 [info]: coded y,uvDC,uvAC intra: 83.1% 85.1% 63.6% inter: 31.7% 28.5% 5.0%
x264 [info]: i16 v,h,dc,p: 50% 14% 7% 29%
x264 [info]: i8 v,h,dc,ddl,ddr,vr,hd,vl,hu: 9% 8% 4% 10% 15% 14% 14% 12% 13%
x264 [info]: i4 v,h,dc,ddl,ddr,vr,hd,vl,hu: 9% 9% 3% 9% 15% 14% 14% 12% 14%
x264 [info]: i8c dc,h,v,p: 39% 23% 20% 18%
x264 [info]: Weighted P-Frames: Y:3.5% UV:1.8%
x264 [info]: ref P L0: 48.6% 11.1% 17.4% 6.2% 5.4% 3.6% 3.4% 1.9% 2.1% 0.3% 0.0%
x264 [info]: ref B L0: 75.5% 11.8% 5.2% 2.8% 1.9% 1.6% 0.9% 0.3%
x264 [info]: ref B L1: 93.1% 6.9%
x264 [info]: SSIM Mean Y:0.9775600 (16.490db)
x264 [info]: PSNR Mean Y:44.233 U:48.288 V:48.243 Avg:45.161 Global:44.584 kb/s:2499.60
Скриншоты



Вернуться к началу
 Профиль Отправить личное сообщение  
 
   Похожие торренты   Автор   Торрент   Размер 
В этой теме нет новых непрочитанных сообщений. Ночной беглец / Run All Night (Хауме Кольет-Серра) [боевик, триллер, драма, криминал, детектив, 2015] BDRip-AVC, Dub+Sub [Лицензия]

Dracon

304 | 8

1.46 ГБ

В этой теме нет новых непрочитанных сообщений. Ночной беглец / Run All Night (Хауме Кольет-Серра) [боевик, триллер, драма, криминал, детектив, 2015] BDRip, Dub [Лицензия]

Dracon

4 | 1

2.18 ГБ

В этой теме нет новых непрочитанных сообщений. Ночной беглец / Run All Night (Хауме Кольет-Серра) [боевик, триллер, драма, криминал, детектив, 2015] BDRip, Dub [Лицензия]

Dracon

2 | 1

1.46 ГБ

В этой теме нет новых непрочитанных сообщений. Ночной беглец / Run All Night (Хауме Кольет-Серра) [боевик, триллер, драма, криминал, детектив, 2015] BDRip 1080p, Dub+Avo+Sub [Лицензия]

Dracon

2 | 0

15.56 ГБ

В этой теме нет новых непрочитанных сообщений. Ночной беглец / Run All Night (Хауме Кольет-Серра) [боевик, триллер, драма, криминал, детектив, 2015] BDRip 720p, Dub+Avo+Sub [Лицензия]

Dracon

1 | 0

10.12 ГБ

В этой теме нет новых непрочитанных сообщений. Бугимен / Boogeyman [ужасы, триллер, драма, детектив, 2005] BDRip 720p, Dub [iPad]

salma3

0 | 0

2.12 ГБ

В этой теме нет новых непрочитанных сообщений. Прибытие / Arrival [фантастика, триллер, драма, детектив, 2016] BDRip 720p, Dub [iPad] [Лицензия]

salma3

197 | 32

1.17 ГБ


Начать новую тему Ответить на тему  [ 1 сообщение ] 




Для Мосгорсуда, Роскомнадзора и рекламодателей:: mosgorsud-torrent[собачка]yandex.ru
cron