Торрент файл
скачать торрент магнет ссылка Добавлен: 11 янв 2013, 22:10
Размер: 2.62 ГБ
Сидеров: 2
Личеров: 4
Автор

СообщениеДобавлено: 11 янв 2013, 22:10 

Не в сети
Супермодератор
Аватара пользователя
Дата регистрации:
11 апр 2010, 18:10
Спасибо: 5995 / 7
Сообщения: 56685
id="p-25224744-1">Схватка / The Grey



Страна: США
Жанр: боевик, триллер, драма, приключения
Год выпуска: 2012
Продолжительность: 01:57:05
Перевод: Профессиональный (дублированный)
Cубтитры: нет
Режиссер: Джо Карнахан/ Joe Carnahan
В ролях: Лиам Нисон / Liam Neeson (Ottway), Фрэнк Грилло / Frank Grillo (Diaz), Дермот Малруни / Dermot Mulroney (Talget), Даллас Робертс / Dallas Roberts (Hendrick), Джо Андерсон / Joe Anderson (Flannery), Нонсо Анози / Nonso Anozie (Burke), Джеймс Бэдж Дэйл / James Badge Dale (Lewenden), Бен Брэй / Ben Bray (Hernandez), Энн Опеншоу / Anne Openshaw (Ottway's Wife), Питер Гиргес / Peter Girges (Company Clerk), Джонатан Битонти / Jonathan Bitonti (Ottway, (5 years old)), Джеймс Битонти / James Bitonti (Ottway's Father)
Описание: На Аляске потерпел крушение самолет, и оставшиеся в живых пассажиры оказались в плену безлюдной снежной пустыни, где только стая волков скрашивает пейзаж. Люди хотят выжить любой ценой, и теперь им предстоит смертельная схватка...

Качество: BDRip
Исходник: http://rutracker.org/forum/viewtopic.php?t=3972972
Формат: m4v
Видео кодек: H.264
Аудио кодек: AAC
Видео: 1200x510, 2912 Kbps, 23,976 fps
Аудио Rus: 48 kHz, AAC, 2ch, 166 kbps
Аудио Eng: 48 kHz, AAC, 2ch, 132 kbps
MediaInfo
Код:
Код:
Полное имя : F:\iPad\The Grey.m4v
Формат : MPEG-4
Идентификатор кодека : M4V
Размер файла : 2,62 Гбайт
Продолжительность : 1 ч. 57 м.
Общий поток : 3207 Кбит/сек
Название фильма : Схватка
Исполнитель : Джо Карнахан
Жанр : Action & Adventure
Дата записи : / 2012-01-26T07:00:00Z
Дата кодирования : UTC 2012-03-07 07:40:38
Дата пометки : UTC 2012-03-08 08:05:47
Обложка : Yes
desc : На Аляске потерпел крушение самолет, и оставшиеся в живых пассажиры оказались в плену безлюдной снежной пустыни, где только стая волков скрашивает пейзаж. Люди хотят выжить любой ценой, и теперь им предстоит смертельная схватка…
ldes : На Аляске потерпел крушение самолет, и оставшиеся в живых пассажиры оказались в плену безлюдной снежной пустыни, где только стая волков скрашивает пейзаж. Люди хотят выжить любой ценой, и теперь им предстоит смертельная схватка…
hdvd : 1
stik : 9
cnID : 503853
xid : iPad:vendor_id:2012-503853
iTunEXTC : mpaa|R|400|
iTunMOVI : / / / / cast / / / name / Лиам Нисон / / / name / Фрэнк Грилло / / / name / Дермот Малруни / / / name / Даллас Робертс / / / name / Джо Андерсон / / / name / Нонсо Анози / / / name / Джеймс Бэдж Дэйл / / / name / Бен Брэй / / / name / Энн Опеншоу / / / name / Питер Гиргес / / / directors / / / name / Джо Карнахан / / / producers / / / name / Джо Карнахан / / / name / Ридли Скотт / / / name / Тони Скотт / / / screenwriters / / / name / Йен Джефферс / / / name / Джо Карнахан / / / /
Видео
Идентификатор : 1
Формат : AVC
Формат/Информация : Advanced Video Codec
Профиль формата : [email protected]
Параметр CABAC формата : Да
Параметр ReFrames формата : 10 кадры
Идентификатор кодека : avc1
Идентификатор кодека/Информация : Advanced Video Coding
Продолжительность : 1 ч. 57 м.
Вид битрейта : Переменный
Битрейт : 2912 Кбит/сек
Максимальный битрейт : 15,9 Мбит/сек
Ширина : 1200 пикс.
Высота : 510 пикс.
Соотношение сторон : 2,35:1
Режим частоты кадров : Постоянный
Частота кадров : 23,976 кадр/сек
Цветовое пространство : YUV
Подвыборка цветности : 4:2:0
Битовая глубина : 8 бит
Тип развёртки : Прогрессивная
Бит/(Пиксели*Кадры) : 0.198
Размер потока : 2,38 Гбайт (91%)
Заголовок : Shvatka.2.9.chopper887
Библиотека кодирования : x264 core 120 r2164 da19765
Настройки программы : cabac=1 / ref=10 / deblock=1:-2:-1 / analyse=0x3:0x133 / me=umh / subme=11 / psy=1 / psy_rd=0.95:0.05 / mixed_ref=1 / me_range=32 / chroma_me=1 / trellis=2 / 8x8dct=1 / cqm=0 / deadzone=21,11 / fast_pskip=0 / chroma_qp_offset=-3 / threads=12 / sliced_threads=0 / nr=0 / decimate=1 / interlaced=0 / bluray_compat=0 / constrained_intra=0 / bframes=10 / b_pyramid=2 / b_adapt=2 / b_bias=0 / direct=3 / weightb=1 / open_gop=0 / weightp=2 / keyint=240 / keyint_min=23 / scenecut=40 / intra_refresh=0 / rc_lookahead=80 / rc=2pass / mbtree=1 / bitrate=2912 / ratetol=1.0 / qcomp=0.60 / qpmin=10 / qpmax=51 / qpstep=4 / cplxblur=20.0 / qblur=0.5 / ip_ratio=1.40 / aq=1:1.00
Язык : English
Дата кодирования : UTC 2012-03-07 07:40:38
Дата пометки : UTC 2012-03-07 07:44:01
Аудио #1
Идентификатор : 2
Формат : AAC
Формат/Информация : Advanced Audio Codec
Профиль формата : LC
Идентификатор кодека : 40
Продолжительность : 1 ч. 57 м.
Вид битрейта : Переменный
Битрейт : 166 Кбит/сек
Максимальный битрейт : 223 Кбит/сек
Канал(ы) : 2 канала(ов)
Расположение каналов : Front: L R
Частота : 48,0 КГц
Метод сжатия : С потерями
Размер потока : 139 Мбайт (5%)
Заголовок : Dub
Язык : Russian
Дата кодирования : UTC 2012-03-07 07:43:33
Дата пометки : UTC 2012-03-07 07:44:01
Аудио #2
Идентификатор : 3
Формат : AAC
Формат/Информация : Advanced Audio Codec
Профиль формата : LC
Идентификатор кодека : 40
Продолжительность : 1 ч. 50 м.
Вид битрейта : Переменный
Битрейт : 132,3 Кбит/сек
Максимальный битрейт : 216 Кбит/сек
Канал(ы) : 2 канала(ов)
Расположение каналов : Front: L R
Частота : 48,0 КГц
Метод сжатия : С потерями
Размер потока : 104 Мбайт (4%)
Заголовок : Eng
Язык : English
Дата кодирования : UTC 2012-03-07 07:43:47
Дата пометки : UTC 2012-03-07 07:44:01

Скриншоты



Вернуться к началу
 Профиль Отправить личное сообщение  
 
   Похожие торренты   Автор   Торрент   Размер 
В этой теме нет новых непрочитанных сообщений. Схватка / The Grey (Джо Карнахан) [2012, боевик, триллер, драма, приключения, BDRip (1080p)]

marya111

0 | 0

8.76 ГБ

В этой теме нет новых непрочитанных сообщений. Схватка / The Grey [Боевик, триллер, драма, 2011] BDRip-AVC, Dub [Open Matte]

salma3

28 | 0

2.86 ГБ

В этой теме нет новых непрочитанных сообщений. Схватка / The Grey [Боевик, триллер, драма, 2011] BDRip 720p, Dub [Open Matte]

salma3

13 | 1

5.26 ГБ

В этой теме нет новых непрочитанных сообщений. Схватка / The Grey [Триллер, драма, приключения, 2012] HDRip-AVC, Dub

salma3

79 | 7

746.03 МБ

В этой теме нет новых непрочитанных сообщений. Схватка / The Grey [Триллер, драма, 2011] BDRip 1080p, Dub [Open Matte]

salma3

0 | 6

10.77 ГБ

В этой теме нет новых непрочитанных сообщений. Схватка / Heat [боевик, триллер, драма, 1995] BDRip, Avo [Remastered]

salma3

67 | 4

1.45 ГБ

В этой теме нет новых непрочитанных сообщений. Коллекционер 2 / The Collection [ужасы, боевик, триллер, 2012] BDRip 720p, Dub [iPad]

salma3

0 | 0

1.73 ГБ


Начать новую тему Ответить на тему  [ 1 сообщение ] 




Для Мосгорсуда, Роскомнадзора и рекламодателей:: mosgorsud-torrent[собачка]yandex.ru
cron