Торрент файл
скачать торрент магнет ссылка Добавлен: 11 янв 2013, 22:10
Размер: 2.45 ГБ
Сидеров: 2
Личеров: 3
Автор

СообщениеДобавлено: 11 янв 2013, 22:10 

Не в сети
Супермодератор
Аватара пользователя
Дата регистрации:
11 апр 2010, 18:10
Спасибо: 5995 / 7
Сообщения: 56685
id="p-25224744-1">Любовь-морковь
Год выпуска: 2007
Страна: Россия
Жанр: Комедия
Продолжительность: 01:44:19
Перевод : Не требуется
Русские субтитры: нет
Режиссёр: Александр Стриженов
В ролях: Гоша Куценко, Кристина Орбакайте, Евгений Стычкин, Андрей Краско, Михаил Козаков, Александр Стриженов, Екатерина Стриженова, Дарья Дроздовская, Ольга Орлова, Виталий Хаев...
На свадьбе супруги Голубевы клялись друг другу в вечной любви. Со временем страсть ушла, а ее место заняли карьера, быт, друзья и личные увлечения. Они все больше ругаются по пустякам, все меньше проводят времени вместе…
Перед супругами замаячила перспектива развода. Последний шанс спасти семью — консультация у семейного психолога доктора Когана. Но доктор Коган лечит семейные отношения не вполне традиционным методом. Утром они просыпаются у себя дома, но теперь они поменялись местами. Им предстоит научиться принимать тела и желания друг друга как свои собственные…

Качество: DVDRip
Формат: *.m4v
Видео кодек: H.264
Аудио кодек: ААС
Разрешение: 576x320
Другие параметры видео: 960 Кбит/сек, в 25,000 кадр/сек, AVC ([email protected]) (1 Ref Frames)
Аудио: Русский, 160 Кбит/сек, 48,0 КГц, 2 канала, AAC (LC)
Вшитая обложка: есть
Доп. теги (режиссёр, актёры и т.д.): прописаны
Главы: прописаны
MediaInfo
Общее
Формат : MPEG-4
Профиль формата : Base Media / Version 2
Идентификатор кодека : mp42
Размер файла : 838 Мбайт
Продолжительность : 1 ч. 44 м.
Общий поток : 1123 Кбит/сек
Название фильма : Любовь-Морковь
Исполнитель : Александр Стриженов
Жанр : Comedy
Дата записи : 2007
Дата кодирования : UTC 2011-02-08 14:57:51
Дата пометки : UTC 2011-02-09 09:03:09
Правообладатель : VOX Video
Обложка : Yes
iTunMOVI : <?xml version="1.0" encoding="UTF-8"?> / <!DOCTYPE plist PUBLIC "-/Apple/DTD PLIST 1.0/EN" "http://www.apple.com/DTDs/PropertyList-1.0.dtd"> / <plist version="1.0"> / <dict> / <key>cast</key> / <array> / <dict> / <key>name</key> / <string>Гоша Куценко</string> / </dict> / <dict> / <key>name</key> / <string>Кристина Орбакайте</string> / </dict> / <dict> / <key>name</key> / <string>Евгений Стычкин</string> / </dict> / <dict> / <key>name</key> / <string>Андрей Краско</string> / </dict> / <dict> / <key>name</key> / <string>Михаил Козаков</string> / </dict> / <dict> / <key>name</key> / <string>Александр Стриженов</string> / </dict> / <dict> / <key>name</key> / <string>Екатерина Стриженова</string> / </dict> / <dict> / <key>name</key> / <string>Дарья Дроздовская</string> / </dict> / <dict> / <key>name</key> / <string>Ольга Орлова</string> / </dict> / <dict> / <key>name</key> / <string>Виталий Хаев...</string> / </dict> / </array> / <key>directors</key> / <array> / <dict> / <key>name</key> / <string>Александр Стриженов</string> / </dict> / </array> / <key>producers</key> / <array> / <dict> / <key>name</key> / <string>Ренат Давлетьяров</string> / </dict> / <dict> / <key>name</key> / <string>Александр Котелевский</string> / </dict> / <dict> / <key>name</key> / <string>Александр Олейников</string> / </dict> / </array> / <key>screenwriters</key> / <array> / <dict> / <key>name</key> / <string>Ренат Давлетьяров</string> / </dict> / <dict> / <key>name</key> / <string>Александр Стриженов</string> / </dict> / <dict> / <key>name</key> / <string>Андрей Курейчик...</string> / </dict> / </array> / </dict> / </plist>
desc : На свадьбе супруги Голубевы клялись друг другу в вечной любви. Со временем страсть ушла, а ее место заняли карьера, быт, друзья и личные увлечения. Они все больше ругаются по пустякам, все меньше проводят времени вместе…
ldes : На свадьбе супруги Голубевы клялись друг другу в вечной любви. Со временем страсть ушла, а ее место заняли карьера, быт, друзья и личные увлечения. Они все больше ругаются по пустякам, все меньше проводят времени вместе… / / Перед супругами замаячила перспектива развода. Последний шанс спасти семью — консультация у семейного психолога доктора Когана. Но доктор Коган лечит семейные отношения не вполне традиционным методом. Утром они просыпаются у себя дома, но теперь они поменялись местами. Им предстоит научиться принимать тела и желания друг друга как свои собственные…
stik : 9
Видео
Идентификатор : 1
Формат : AVC
Формат/Информация : Advanced Video Codec
Профиль формата : [email protected]
Параметр CABAC формата : Нет
Параметр ReFrames формата : 1 кадр
Идентификатор кодека : avc1
Идентификатор кодека/Информация : Advanced Video Coding
Продолжительность : 1 ч. 44 м.
Вид битрейта : Переменный
Битрейт : 960 Кбит/сек
Ширина : 576 пикс.
Высота : 320 пикс.
Соотношение сторон : 16:9
Режим частоты кадров : Постоянный
Частота кадров : 25,000 кадр/сек
Цветовое пространство : YUV
Подвыборка цветности : 4:2:0
Битовая глубина : 8 бит
Тип развёртки : Прогрессивная
Бит/(Пиксели*Кадры) : 0.208
Размер потока : 716 Мбайт (85%)
Библиотека кодирования : x264 core 112
Настройки программы : cabac=0 / ref=1 / deblock=1:0:0 / analyse=0x1:0x131 / me=umh / subme=6 / psy=1 / psy_rd=0.00:0.00 / mixed_ref=0 / me_range=16 / chroma_me=1 / trellis=0 / 8x8dct=0 / cqm=0 / deadzone=21,11 / fast_pskip=0 / chroma_qp_offset=0 / threads=1 / sliced_threads=0 / nr=0 / decimate=1 / interlaced=0 / constrained_intra=0 / bframes=0 / weightp=0 / keyint=250 / keyint_min=25 / scenecut=40 / intra_refresh=0 / rc_lookahead=40 / rc=2pass / mbtree=1 / bitrate=960 / ratetol=1.0 / qcomp=0.60 / qpmin=3 / qpmax=51 / qpstep=4 / cplxblur=20.0 / qblur=0.5 / vbv_maxrate=1500 / vbv_bufsize=2000 / ip_ratio=1.40 / aq=1:1.00 / nal_hrd=none
Дата кодирования : UTC 2011-02-08 14:57:51
Дата пометки : UTC 2011-02-08 18:02:04
Основные цвета : BT.601-6 525, BT.1358 525, BT.1700 NTSC, SMPTE 170M
Характеристики трансфера : BT.709-5, BT.1361
Коэффициенты матрицы : BT.601-6 525, BT.1358 525, BT.1700 NTSC, SMPTE 170M
Аудио
Идентификатор : 2
Формат : AAC
Формат/Информация : Advanced Audio Codec
Профиль формата : LC
Идентификатор кодека : 40
Продолжительность : 1 ч. 44 м.
Вид битрейта : Переменный
Битрейт : 160 Кбит/сек
Максимальный битрейт : 197 Кбит/сек
Канал(ы) : 2 канала(ов)
Расположение каналов : Front: L R
Частота : 48,0 КГц
Метод сжатия : С потерями
Размер потока : 119 Мбайт (14%)
Язык : Russian
Дата кодирования : UTC 2011-02-08 14:57:52
Дата пометки : UTC 2011-02-08 18:02:03
Текст
Идентификатор : 3
Формат : Apple text
Идентификатор кодека : text
Продолжительность : 1 ч. 44 м.
Вид битрейта : Переменный
Битрейт : 0
Размер потока : 279 байт (0%)
Дата кодирования : UTC 2011-02-08 14:57:52
Дата пометки : UTC 2011-02-08 18:02:03
Скриншоты


Любовь-морковь 2
Год выпуска: 2008
Страна: Россия
Жанр: Комедия
Продолжительность: 01:34:45
Перевод : Не требуется
Русские субтитры: нет
Режиссёр: Максим Пежемский
В ролях: Кристина Орбакайте, Гоша Куценко, Денис Парамонов, Алина Булынко, Лидия Вележева, Кирилл Плетнёв, Ольга Орлова, Андрей Ургант, Дарья Дроздовская, Виталий Емашов...
Десять лет назад супруги Голубевы проверили свои чувства на прочность, поменявшись телами. Теперь они — папа Андрей и мама Марина. В их семье растут близнецы, Глеб и Светочка. Жизнь супругов налажена, карьера головокружительна, а день расписан по часам. Они уже плохо помнят, что дети больше любят живых собак, чем искусственных, и что друзья родителей — не лучшая компания в день рожденья. Они забыли, что любовь и внимание дороже денег. Чтобы вернуть все на свои места, нужно опять поменять всех местами — решит доктор Коган и навестит своих старых приятелей Голубевых.
А поутру они проснутся — Глеб и Света в родительской спальне, Андрей и Марина — в детской. Пока «маленькие» Голубевы будут поражать одноклассников и учителей познаниями, их «взрослые» дети едва не поставят крест на карьере родителей и лишат семью крова. Андрею и Марине светит детский дом, а Свете и Глебу — сумасшедший. Но Голубевы не сдаются!
Менеджеры по персоналу узнают, как может справиться с работой рекламного «чебурека» блестящий искусствовед, и стоит ли давать бывшим юристам в руки швабру. Злобная няня сгорит на работе, а риэлтор попробует продать дом на кладбище со скользкими лестницами. Чтобы «прийти в себя», вернуть свой дом и доброе имя Голубевым придется сплотиться, разоблачить злоумышленников, вернуть легендарный бриллиант и найти ключ от банковской ячейки, где деньги лежат…

Качество: DVDRip
Формат: *.m4v
Видео кодек: H.264
Аудио кодек: ААС
Разрешение: 576x320
Другие параметры видео: 960 Кбит/сек, в 25,000 кадр/сек, AVC ([email protected]) (1 Ref Frames)
Аудио: Русский, 160 Кбит/сек, 48,0 КГц, 2 канала, AAC (LC)
Вшитая обложка: есть
Доп. теги (режиссёр, актёры и т.д.): прописаны
Главы: прописаны
MediaInfo
Общее
Формат : MPEG-4
Профиль формата : Base Media / Version 2
Идентификатор кодека : mp42
Размер файла : 760 Мбайт
Продолжительность : 1 ч. 34 м.
Общий поток : 1122 Кбит/сек
Название фильма : Любовь-морковь 2
Исполнитель : Максим Пежемский
Жанр : Comedy
Дата записи : 2008
Дата кодирования : UTC 2011-04-09 13:29:19
Дата пометки : UTC 2011-04-09 13:54:13
Программа кодирования : HandBrake 0.9.5 2011010300
Правообладатель : Реал-Дакота
Обложка : Yes
iTunMOVI : <?xml version="1.0" encoding="UTF-8"?> / <!DOCTYPE plist PUBLIC "-/Apple/DTD PLIST 1.0/EN" "http://www.apple.com/DTDs/PropertyList-1.0.dtd"> / <plist version="1.0"> / <dict> / <key>cast</key> / <array> / <dict> / <key>name</key> / <string>Кристина Орбакайте</string> / </dict> / <dict> / <key>name</key> / <string>Гоша Куценко</string> / </dict> / <dict> / <key>name</key> / <string>Денис Парамонов</string> / </dict> / <dict> / <key>name</key> / <string>Алина Булынко</string> / </dict> / <dict> / <key>name</key> / <string>Лидия Вележева</string> / </dict> / <dict> / <key>name</key> / <string>Кирилл Плетнёв</string> / </dict> / <dict> / <key>name</key> / <string>Ольга Орлова</string> / </dict> / <dict> / <key>name</key> / <string>Андрей Ургант</string> / </dict> / <dict> / <key>name</key> / <string>Дарья Дроздовская</string> / </dict> / <dict> / <key>name</key> / <string>Виталий Емашов и др.</string> / </dict> / </array> / <key>directors</key> / <array> / <dict> / <key>name</key> / <string>Максим Пежемский</string> / </dict> / </array> / <key>producers</key> / <array> / <dict> / <key>name</key> / <string>Ренат Давлетьяров</string> / </dict> / <dict> / <key>name</key> / <string>Александр Котелевский</string> / </dict> / <dict> / <key>name</key> / <string>Александр Олейников</string> / </dict> / </array> / <key>screenwriters</key> / <array> / <dict> / <key>name</key> / <string>Андрей Курейчик</string> / </dict> / <dict> / <key>name</key> / <string>Александр Олейников</string> / </dict> / </array> / </dict> / </plist>
desc : «Они снова не в себе»
ldes : Десять лет назад супруги Голубевы проверили свои чувства на прочность, поменявшись телами. Теперь они — папа Андрей и мама Марина. В их семье растут близнецы, Глеб и Светочка. Жизнь супругов налажена, карьера головокружительна, а день расписан по часам. Они уже плохо помнят, что дети больше любят живых собак, чем искусственных, и что друзья родителей — не лучшая компания в день рожденья. Они забыли, что любовь и внимание дороже денег. Чтобы вернуть все на свои места, нужно опять поменять всех местами — решит доктор Коган и навестит своих старых приятелей Голубевых. / / А поутру они проснутся — Глеб и Света в родительской спальне, Андрей и Марина — в детской. Пока «маленькие» Голубевы будут поражать одноклассников и учителей познаниями, их «взрослые» дети едва не поставят крест на карьере родителей и лишат семью крова. Андрею и Марине светит детский дом, а Свете и Глебу — сумасшедший. Но Голубевы не сдаются! / / Менеджеры по персоналу узнают, как может справиться с работой рекламного «чебурека» блестящий искусствовед, и стоит ли давать бывшим юристам в руки швабру. Злобная няня сгорит на работе, а риэлтор попробует продать дом на кладбище со скользкими лестницами. Чтобы «прийти в себя», вернуть свой дом и доброе имя Голубевым придется сплотиться, разоблачить злоумышленников, вернуть легендарный бриллиант и найти ключ от банковской ячейки, где деньги лежат…
stik : 9
Видео
Идентификатор : 1
Формат : AVC
Формат/Информация : Advanced Video Codec
Профиль формата : [email protected]
Параметр CABAC формата : Нет
Параметр ReFrames формата : 1 кадр
Идентификатор кодека : avc1
Идентификатор кодека/Информация : Advanced Video Coding
Продолжительность : 1 ч. 34 м.
Вид битрейта : Переменный
Битрейт : 960 Кбит/сек
Ширина : 576 пикс.
Высота : 320 пикс.
Соотношение сторон : 16:9
Режим частоты кадров : Постоянный
Частота кадров : 25,000 кадр/сек
Цветовое пространство : YUV
Подвыборка цветности : 4:2:0
Битовая глубина : 8 бит
Тип развёртки : Прогрессивная
Бит/(Пиксели*Кадры) : 0.208
Размер потока : 649 Мбайт (85%)
Библиотека кодирования : x264 core 112
Настройки программы : cabac=0 / ref=1 / deblock=1:0:0 / analyse=0x1:0x131 / me=umh / subme=6 / psy=1 / psy_rd=0.00:0.00 / mixed_ref=0 / me_range=16 / chroma_me=1 / trellis=0 / 8x8dct=0 / cqm=0 / deadzone=21,11 / fast_pskip=0 / chroma_qp_offset=0 / threads=6 / sliced_threads=0 / nr=0 / decimate=1 / interlaced=0 / constrained_intra=0 / bframes=0 / weightp=0 / keyint=250 / keyint_min=25 / scenecut=40 / intra_refresh=0 / rc_lookahead=40 / rc=2pass / mbtree=1 / bitrate=960 / ratetol=1.0 / qcomp=0.60 / qpmin=3 / qpmax=51 / qpstep=4 / cplxblur=20.0 / qblur=0.5 / vbv_maxrate=1500 / vbv_bufsize=2000 / ip_ratio=1.40 / aq=1:1.00 / nal_hrd=none
Дата кодирования : UTC 2011-04-09 13:29:19
Дата пометки : UTC 2011-04-09 13:44:20
Основные цвета : BT.601-6 525, BT.1358 525, BT.1700 NTSC, SMPTE 170M
Характеристики трансфера : BT.709-5, BT.1361
Коэффициенты матрицы : BT.601-6 525, BT.1358 525, BT.1700 NTSC, SMPTE 170M
Аудио
Идентификатор : 2
Формат : AAC
Формат/Информация : Advanced Audio Codec
Профиль формата : LC
Идентификатор кодека : 40
Продолжительность : 1 ч. 34 м.
Вид битрейта : Переменный
Битрейт : 160 Кбит/сек
Максимальный битрейт : 201 Кбит/сек
Канал(ы) : 2 канала(ов)
Расположение каналов : Front: L R
Частота : 48,0 КГц
Метод сжатия : С потерями
Размер потока : 108 Мбайт (14%)
Язык : English
Дата кодирования : UTC 2011-04-09 13:29:19
Дата пометки : UTC 2011-04-09 13:44:20
Текст
Идентификатор : 3
Формат : Apple text
Идентификатор кодека : text
Продолжительность : 1 ч. 34 м.
Вид битрейта : Переменный
Битрейт : 0
Размер потока : 303 байт (0%)
Дата кодирования : UTC 2011-04-09 13:29:19
Дата пометки : UTC 2011-04-09 13:44:20
Скриншоты


Любовь-морковь 3
Год выпуска: 2011
Страна: Россия
Жанр: Комедия
Продолжительность: 01:33:41
Перевод : Не требуется
Русские субтитры: нет
Режиссёр: Сергей Гинзбург
В ролях: Кристина Орбакайте, Гоша Куценко, Денис Парамонов, Алина Булынко, Лия Ахеджакова, Владимир Меньшов, Вячеслав Манучаров, Михаил Козаков, Андрей Ургант, Людмила Гаврилова...
В семье Голубевых — опять стихийное бедствие. Без предупреждения к ним нагрянула теща — утонченная любительница музыки и поэзии. А за ней свекор — бравый полковник, простой как Устав Вооруженных сил. Хотя со времени свадьбы прошло почти пятнадцать лет, мама Марины по-прежнему недолюбливает Андрея, а отец Андрея даже не скрывает, что мечтал о другой невестке. А уж когда старики сталкиваются друг с другом — это гром и молния! И как всегда, в самый сложный момент на пороге появляется профессор Коган, специалист по решению семейных проблем.

Качество: DVDRip
Формат: *.m4v
Видео кодек: H.264
Аудио кодек: ААС
Разрешение: 720x320
Другие параметры видео: 1200 Кбит/сек, в 25,000 кадр/сек, AVC ([email protected]) (1 Ref Frames)
Аудио: Русский, 160 Кбит/сек, 48,0 КГц, 2 канала, AAC (LC)
Вшитая обложка: есть
Доп. теги (режиссёр, актёры и т.д.): прописаны
Главы: прописаны
MediaInfo
Общее
Формат : MPEG-4
Профиль формата : Base Media / Version 2
Идентификатор кодека : mp42
Размер файла : 912 Мбайт
Продолжительность : 1 ч. 33 м.
Общий поток : 1361 Кбит/сек
Название фильма : Любовь-морковь 3
Исполнитель : Сергей Гинзбург
Жанр : Comedy
Дата записи : 2011
Дата кодирования : UTC 2011-04-09 12:37:51
Дата пометки : UTC 2011-04-09 13:16:59
Правообладатель : Реал-Дакота
Обложка : Yes
iTunMOVI : <?xml version="1.0" encoding="UTF-8"?> / <!DOCTYPE plist PUBLIC "-/Apple/DTD PLIST 1.0/EN" "http://www.apple.com/DTDs/PropertyList-1.0.dtd"> / <plist version="1.0"> / <dict> / <key>cast</key> / <array> / <dict> / <key>name</key> / <string>Кристина Орбакайте</string> / </dict> / <dict> / <key>name</key> / <string>Гоша Куценко</string> / </dict> / <dict> / <key>name</key> / <string>Денис Парамонов</string> / </dict> / <dict> / <key>name</key> / <string>Алина Булынко</string> / </dict> / <dict> / <key>name</key> / <string>Лия Ахеджакова</string> / </dict> / <dict> / <key>name</key> / <string>Владимир Меньшов</string> / </dict> / <dict> / <key>name</key> / <string>Вячеслав Манучаров</string> / </dict> / <dict> / <key>name</key> / <string>Михаил Козаков</string> / </dict> / <dict> / <key>name</key> / <string>Андрей Ургант</string> / </dict> / <dict> / <key>name</key> / <string>Людмила Гаврилова...</string> / </dict> / </array> / <key>directors</key> / <array> / <dict> / <key>name</key> / <string>Сергей Гинзбург</string> / </dict> / </array> / <key>producers</key> / <array> / <dict> / <key>name</key> / <string>Ренат Давлетьяров</string> / </dict> / <dict> / <key>name</key> / <string>Александр Котелевский</string> / </dict> / <dict> / <key>name</key> / <string>Александр Олейников</string> / </dict> / </array> / <key>screenwriters</key> / <array> / <dict> / <key>name</key> / <string>Ренат Давлетьяров</string> / </dict> / <dict> / <key>name</key> / <string>Юрий Коротков</string> / </dict> / <dict> / <key>name</key> / <string>Александр Олейников...</string> / </dict> / </array> / </dict> / </plist>
desc : «Они снова не в себе!»
ldes : В семье Голубевых — опять стихийное бедствие. Без предупреждения к ним нагрянула теща — утонченная любительница музыки и поэзии. А за ней свекор — бравый полковник, простой как Устав Вооруженных сил. Хотя со времени свадьбы прошло почти пятнадцать лет, мама Марины по-прежнему недолюбливает Андрея, а отец Андрея даже не скрывает, что мечтал о другой невестке. А уж когда старики сталкиваются друг с другом — это гром и молния! И как всегда, в самый сложный момент на пороге появляется профессор Коган, специалист по решению семейных проблем.
stik : 9
Видео
Идентификатор : 1
Формат : AVC
Формат/Информация : Advanced Video Codec
Профиль формата : [email protected]
Параметр CABAC формата : Нет
Параметр ReFrames формата : 1 кадр
Идентификатор кодека : avc1
Идентификатор кодека/Информация : Advanced Video Coding
Продолжительность : 1 ч. 33 м.
Вид битрейта : Переменный
Битрейт : 1200 Кбит/сек
Ширина : 720 пикс.
Высота : 320 пикс.
Соотношение сторон : 2,25:1
Режим частоты кадров : Постоянный
Частота кадров : 25,000 кадр/сек
Цветовое пространство : YUV
Подвыборка цветности : 4:2:0
Битовая глубина : 8 бит
Тип развёртки : Прогрессивная
Бит/(Пиксели*Кадры) : 0.208
Размер потока : 803 Мбайт (88%)
Библиотека кодирования : x264 core 112
Настройки программы : cabac=0 / ref=1 / deblock=1:0:0 / analyse=0x1:0x131 / me=umh / subme=6 / psy=1 / psy_rd=0.00:0.00 / mixed_ref=0 / me_range=16 / chroma_me=1 / trellis=0 / 8x8dct=0 / cqm=0 / deadzone=21,11 / fast_pskip=0 / chroma_qp_offset=0 / threads=6 / sliced_threads=0 / nr=0 / decimate=1 / interlaced=0 / constrained_intra=0 / bframes=0 / weightp=0 / keyint=250 / keyint_min=25 / scenecut=40 / intra_refresh=0 / rc_lookahead=40 / rc=2pass / mbtree=1 / bitrate=1200 / ratetol=1.0 / qcomp=0.60 / qpmin=3 / qpmax=51 / qpstep=4 / cplxblur=20.0 / qblur=0.5 / vbv_maxrate=1500 / vbv_bufsize=2000 / ip_ratio=1.40 / aq=1:1.00 / nal_hrd=none
Дата кодирования : UTC 2011-04-09 12:37:51
Дата пометки : UTC 2011-04-09 13:00:56
Основные цвета : BT.601-6 525, BT.1358 525, BT.1700 NTSC, SMPTE 170M
Характеристики трансфера : BT.709-5, BT.1361
Коэффициенты матрицы : BT.601-6 525, BT.1358 525, BT.1700 NTSC, SMPTE 170M
Аудио
Идентификатор : 2
Формат : AAC
Формат/Информация : Advanced Audio Codec
Профиль формата : LC
Идентификатор кодека : 40
Продолжительность : 1 ч. 33 м.
Вид битрейта : Переменный
Битрейт : 160 Кбит/сек
Максимальный битрейт : 307 Кбит/сек
Канал(ы) : 2 канала(ов)
Расположение каналов : Front: L R
Частота : 48,0 КГц
Метод сжатия : С потерями
Размер потока : 107 Мбайт (12%)
Язык : Russian
Дата кодирования : UTC 2011-04-09 12:37:51
Дата пометки : UTC 2011-04-09 13:00:56
Текст
Идентификатор : 3
Формат : Apple text
Идентификатор кодека : text
Продолжительность : 1 ч. 33 м.
Вид битрейта : Переменный
Битрейт : 1 бит/сек
Размер потока : 375 байт (0%)
Дата кодирования : UTC 2011-04-09 12:37:51
Дата пометки : UTC 2011-04-09 13:00:56
Скриншоты



Вернуться к началу
 Профиль Отправить личное сообщение  
 
   Похожие торренты   Автор   Торрент   Размер 
В этой теме нет новых непрочитанных сообщений. Любовь-морковь по-французски / L'un dans l'autre [Комедия, 2017] BDRip, Dub [iTunes]

salma3

93 | 18

745.41 МБ

В этой теме нет новых непрочитанных сообщений. Любовь-морковь по-французски / L'un dans l'autre [Комедия, 2017] WEB-DL 1080p, Dub [iTunes]

salma3

10 | 11

2.9 ГБ

В этой теме нет новых непрочитанных сообщений. Любовь-морковь по-французски / L'un dans l'autre [Комедия, 2017] BDRip, Dub [iTunes]

salma3

37 | 50

1.42 ГБ

В этой теме нет новых непрочитанных сообщений. Любовь-морковь по-французски / L'un dans l'autre [Комедия, 2017] BDRip 720p, Dub [iTunes]

salma3

0 | 0

3.3 ГБ

В этой теме нет новых непрочитанных сообщений. Любовь-морковь по-французски / L'un dans l'autre [Комедия, 2017] BDRip 1080p, Dub [iTunes]

salma3

0 | 0

6.78 ГБ

В этой теме нет новых непрочитанных сообщений. Дедушка моей мечты (Александр Стриженов) [комедия, семейный, 2015] WEB-DLRip [iTunes]

Dracon

7433 | 578

1.46 ГБ

В этой теме нет новых непрочитанных сообщений. Дедушка моей мечты (Александр Стриженов) [комедия, семейный, 2015] WEB-DL 720p [iTunes]

Dracon

1935 | 113

3.06 ГБ


Начать новую тему Ответить на тему  [ 1 сообщение ] 




Для Мосгорсуда, Роскомнадзора и рекламодателей:: mosgorsud-torrent[собачка]yandex.ru
cron