Торрент файл
скачать торрент магнет ссылка Добавлен: 11 янв 2013, 22:09
Размер: 2.58 ГБ
Сидеров: 2
Личеров: 3
Автор

СообщениеДобавлено: 11 янв 2013, 22:09 

Не в сети
Супермодератор
Аватара пользователя
Дата регистрации:
11 апр 2010, 18:10
Спасибо: 5996 / 7
Сообщения: 56684
id="p-25224744-1">Орел Девятого Легиона / The Eagle



Страна: США, Великобритания
Жанр: драма, история
Год выпуска: 2011
Продолжительность: 01:54:09
Перевод: Профессиональный (дублированный)
Режиссер: Кевин МакДональд / Kevin Macdonald
В ролях: Ченнинг Татум, Джейми Белл, Дональд Сазерленд, Марк Стронг, Дэкин Мэтьюз, Истван Гёз, Дэнис О’Харе, Пол Риттер, Жолт Ласло, Джулиан Льюис Джонс
Описание: II век нашей эры. Молодой центурион Маркус Акила прибывает из Рима на Британские острова, и отправляется в горы Шотландии на поиски пропавшего 20 лет назад легендарного Девятого легиона, которым командовал его отец… Дикие племена и непредсказуемые опасности стоят на пути героя, но он во чтобы то ни стало должен найти след римских воинов и спасти главный символ легиона — Орла Девяти.
Качество: BDRip
Исходник: Сторонний ресурс
Формат: m4v
Видео кодек: H.264
Аудио кодек: AAC
Видео: 1024x436, 3100 Kbps, 23,976 fps
Аудио Rus: 48 kHz, AAC, 2ch, 144 kbps
MediaInfo
Код:
Код:
Полное имя : E:\The Eagle.m4v
Формат : MPEG-4
Идентификатор кодека : M4V
Размер файла : 2,58 Гбайт
Продолжительность : 1 ч. 55 м.
Общий поток : 3216 Кбит/сек
Название фильма : Орел Девятого легиона
Исполнитель : Кевин МакДональд
Жанр : Action & Adventure
Дата записи : UTC 2011-02-11 08:00:00
Дата кодирования : UTC 2012-03-08 23:10:41
Дата пометки : UTC 2012-03-09 23:16:38
Обложка : Yes
desc : II век нашей эры. Молодой центурион Маркус Акила прибывает из Рима на Британские острова, и отправляется в горы Шотландии на поиски пропавшего 20 лет назад легендарного Девятого легиона, которым командовал его отец…
ldes : II век нашей эры. Молодой центурион Маркус Акила прибывает из Рима на Британские острова, и отправляется в горы Шотландии на поиски пропавшего 20 лет назад легендарного Девятого легиона, которым командовал его отец… Дикие племена и непредсказуемые опасности стоят на пути героя, но он во чтобы то ни стало должен найти след римских воинов и спасти главный символ легиона — Орла Девяти.
hdvd : 1
stik : 0
cnID : 435470804
xid : iPad:vendor_id:2011-455353
iTunEXTC : mpaa|PG-13|300|
iTunMOVI : / / / / cast / / / name / Ченнинг Татум / / / name / Джейми Белл / / / name / Дональд Сазерленд / / / name / Марк Стронг / / / name / Дэкин Мэтьюз / / / name / Истван Гёз / / / name / Дэнис О’Харе / / / name / Пол Риттер / / / name / Жолт Ласло / / / name / Джулиан Льюис Джонс / / / directors / / / name / Кевин МакДональд / / / producers / / / name / Дункан Кенуорси / / / name / Кэролайн Хьюит / / / name / Майлз Кетли / / / screenwriters / / / name / Джереми Брок / / / name / Розмари Сатклифф / / / /
Видео
Идентификатор : 1
Формат : AVC
Формат/Информация : Advanced Video Codec
Профиль формата : [email protected]
Параметр CABAC формата : Да
Параметр ReFrames формата : 9 кадры
Идентификатор кодека : avc1
Идентификатор кодека/Информация : Advanced Video Coding
Продолжительность : 1 ч. 54 м.
Вид битрейта : Переменный
Битрейт : 3100 Кбит/сек
Максимальный битрейт : 9082 Кбит/сек
Ширина : 1024 пикс.
Высота : 436 пикс.
Соотношение сторон : 2,35:1
Режим частоты кадров : Постоянный
Частота кадров : 23,976 кадр/сек
Цветовое пространство : YUV
Подвыборка цветности : 4:2:0
Битовая глубина : 8 бит
Тип развёртки : Прогрессивная
Бит/(Пиксели*Кадры) : 0.290
Размер потока : 2,46 Гбайт (95%)
Библиотека кодирования : x264 core 114 r1924 08d04a4
Настройки программы : cabac=1 / ref=9 / deblock=1:-2:-1 / analyse=0x3:0x133 / me=umh / subme=10 / psy=1 / psy_rd=1.00:0.10 / mixed_ref=1 / me_range=32 / chroma_me=1 / trellis=2 / 8x8dct=1 / cqm=0 / deadzone=21,11 / fast_pskip=0 / chroma_qp_offset=2 / threads=3 / sliced_threads=0 / nr=0 / decimate=1 / interlaced=0 / constrained_intra=0 / bframes=8 / b_pyramid=2 / b_adapt=2 / b_bias=0 / direct=1 / weightb=1 / open_gop=0 / weightp=2 / keyint=250 / keyint_min=23 / scenecut=40 / intra_refresh=0 / rc=2pass / mbtree=0 / bitrate=3100 / ratetol=1.0 / qcomp=0.60 / qpmin=0 / qpmax=69 / qpstep=4 / cplxblur=20.0 / qblur=0.5 / ip_ratio=1.40 / pb_ratio=1.30 / aq=1:1.00
Язык : English
Дата кодирования : UTC 2012-03-08 23:10:41
Дата пометки : UTC 2012-03-08 23:13:38
Аудио
Идентификатор : 2
Формат : AAC
Формат/Информация : Advanced Audio Codec
Профиль формата : LC
Идентификатор кодека : 40
Продолжительность : 1 ч. 55 м.
Вид битрейта : Переменный
Битрейт : 144 Кбит/сек
Максимальный битрейт : 236 Кбит/сек
Канал(ы) : 2 канала(ов)
Расположение каналов : Front: L R
Частота : 48,0 КГц
Метод сжатия : С потерями
Размер потока : 119 Мбайт (4%)
Заголовок : Russian
Язык : Russian
Дата кодирования : UTC 2012-03-08 23:13:25
Дата пометки : UTC 2012-03-08 23:13:38
Текст
Идентификатор : 3
Формат : Apple text
Идентификатор кодека : text
Продолжительность : 1 ч. 55 м.
Вид битрейта : Постоянный
Битрейт : 1 бит/сек
Размер потока : 459 байт (0%)
Дата кодирования : UTC 2012-03-09 23:16:18
Дата пометки : UTC 2012-03-09 23:16:18

Скриншоты



Вернуться к началу
 Профиль Отправить личное сообщение  
 
   Похожие торренты   Автор   Торрент   Размер 
В этой теме нет новых непрочитанных сообщений. Орел Девятого легиона / The Eagle [драма, история, 2011] BDRip 1080p, Dub

salma3

0 | 0

4.37 ГБ

В этой теме нет новых непрочитанных сообщений. Орел Девятого легиона / The Eagle [драма, история, 2011] BDRip 720p, Dub [Unrated Cut]

salma3

0 | 1

4.37 ГБ

В этой теме нет новых непрочитанных сообщений. Орел Девятого легиона / The Eagle [Драма, история, экранизация, 2011] BDRemux 1080p, Dub [Расширенная версия]

salma3

0 | 0

24.31 ГБ

В этой теме нет новых непрочитанных сообщений. Орёл Девятого Легиона / The Eagle [Драма, история, экранизация, 2011] ВDRip 720р, Dub+Sub [Расширенная версия]

salma3

191 | 112

7.1 ГБ

В этой теме нет новых непрочитанных сообщений. Эдди «Орел» / Eddie the Eagle [драма, комедия, биография, спорт, 2016] BDRip, Dub [лицензия]

salma3

369 | 20

1.46 ГБ

В этой теме нет новых непрочитанных сообщений. Эдди «Орел» / Eddie the Eagle [драма, комедия, биография, спорт, 2016] BDRip-HEVC 1080p, Dub

salma3

0 | 0

4.18 ГБ

В этой теме нет новых непрочитанных сообщений. Эдди «Орел» / Eddie the Eagle ( драма, комедия, биография, спорт, 2016) BDRip 720p от HELLYWOOD | Лицензия

marya111

0 | 0

4.36 ГБ


Начать новую тему Ответить на тему  [ 1 сообщение ] 




Для Мосгорсуда, Роскомнадзора и рекламодателей:: mosgorsud-torrent[собачка]yandex.ru
cron