Торрент файл
скачать торрент магнет ссылка Добавлен: 11 янв 2013, 22:09
Размер: 1.93 ГБ
Сидеров: 0
Личеров: 2
Автор

СообщениеДобавлено: 11 янв 2013, 22:09 

Не в сети
Супермодератор
Аватара пользователя
Дата регистрации:
11 апр 2010, 18:10
Спасибо: 5996 / 7
Сообщения: 56684
id="p-25224744-1">Батальоны просят огня
Страна: СССР
Год выпуска: 1985
Жанр: ДрамаВоенный
Продолжительность: 4 x ~ 01:06:00
Качество/ Исходник: DVDRip - AVC
Язык: Русский
Тэги: Полное тэгирование
Субтитры: нет


В ролях:
Александр Збруев командир батареи капитан Ермаков
Олег Ефремов командир полка полковник Гуляев
Александр Галибин командир батареи старший лейтенант Кондратьев
Вадим Спиридонов командир дивизии полковник Иверзев
Игорь Скляр ординарец Гуляева старшина Витьковский
Николай Караченцов старший лейтенант Орлов
Елена Попова медсестра Шура
Владимир Кашпур командир батальона майор Бульбанюк
Вячеслав Баранов лейтенант Ерошин
Борислав Брондуков старшина Цыгичко
Описание:«Батальоны просят огня» советский, 4 -х серийный художественный фильм
по мотивам одноименной повести Юрия Бондарева
снятый режиссёрами Александром Боголюбовым и Владимиром Чеботаревым.Фильм можно считать римейком 2-й серии киноэпопеи «Освобождение» («Прорыв») 1969 года, поскольку снят по одной повести и почти полностью повторяет сюжет.Основа сюжета фильма — важный этап Великой Отечественной войны, форсирование советскими войсками Днепра в ходе летне-осенней кампании 1943 года ...Два батальона 85-го стрелкового полка должны форсировать Днепр, создать плацдарм в районе Новомихайловка, для последующего развития наступления дивизии (так была поставлена боевая задача) ...
На самом деле батальоны должны ...
... приковать к себе немецкие подразделения, а основные силы дивизии развить наступление в другом месте ...
Для поддержки батальонов дивизия выделила артиллерийские части. Таков был план. Однако перед наступлением дивизия осталась без боеприпасов: по вине руководства тыла эшелоны не разгрузили за короткую летнюю ночь и немцы разбомбили их ...
Командование меняет план наступления, оставляя батальоны без огневой поддержки, чем обрекает их на верную гибель ...
Такова суровая правда войны: лень и халатность одних оплачивается кровью других ...
О фильме
Ляпы в фильме
    В начале второй серии и в конце четвертой, после бомбежки, в кадре видна боевая техника, которой в начале осени 1943 года не могло быть на фронте:танк Т-44 — серийное производство началось в 1944 году
    несколько танков Т-10М — их стали выпускать только после войны
    самоходная артиллерийская установка ИСУ-152 — серийное производство началось только в ноябре 1943 года
    Явно летний фон и природа в то время, когда действия фильма происходят в конце сентября—октябре 1943 года. Более южные широты не спасают положения, даже в начале романа упоминаются желтеющие леса в то время, как везде ясно видна сочная зелень. Окончательно портит «осеннюю» картину голос кукушки в конце 3-й серии (сразу после гибели в болотах Жорки Витьковского) — кто хоть немного знает природу, должен помнить, что кукушка кукует только весной и в первой половине лета.
    Несколько батальных эпизодов в 3-й серии (бомбёжка ИЛами немецких позиций) позаимствованы из «Они сражались за Родину» Сергея Бондарчука (в частности, рухнувший с обрыва немецкий танк, перевернувшийся кверху гусеницами и продолжающий вращать ими из-за уцелевшего работающего мотора, а также немецкие танки, давящие горящие хаты).
  • В начале третьей серии капитан Ермаков рассматривает фотографию схваченного в плен власовца: фотография, на которой он читает подпись, несколькими секундами позже меняется на другую.
Вид данного материала в iTunes
Тех. данные
Формат: MP4
Видео кодек: H.264
Аудио кодек: AAC
Видео: 480x360 (4:3), 896 Kbps, 25.000 fps
Аудио: AAC LC, 129 Kbps, 2 channels
General
Complete name : Батальоны просят огня. 1 серия.mp4
Format : MPEG-4
Format profile : Base Media
Codec ID : isom
File size : 466 MiB
Duration : 1h 3mn
Overall bit rate : 1 030 Kbps
Movie name : Батальоны просят огня. 1 серия
Genre : War
Recorded date : 1985.02.18
Encoded date : UTC 2011-05-05 19:31:11
Tagged date : UTC 2011-05-06 20:31:46
Cover : Yes
iTunMOVI : <?xml version="1.0" encoding="UTF-8"?> / <!DOCTYPE plist PUBLIC "-/Apple/DTD PLIST 1.0/EN" "http://www.apple.com/DTDs/PropertyList-1.0.dtd"> / <plist version="1.0"> / <dict> / <key>cast</key> / <array> / <dict> / <key>name</key> / <string>Вадим Андреев</string> / </dict> / <dict> / <key>name</key> / <string>Александр Збруев</string> / </dict> / <dict> / <key>name</key> / <string>Борислав Брондуков</string> / </dict> / <dict> / <key>name</key> / <string>Вадим Спиридонов</string> / </dict> / <dict> / <key>name</key> / <string>Олег Ефремов</string> / </dict> / <dict> / <key>name</key> / <string>Александр Галибин</string> / </dict> / <dict> / <key>name</key> / <string>Елена Попова</string> / </dict> / <dict> / <key>name</key> / <string>Игорь Скляр</string> / </dict> / <dict> / <key>name</key> / <string>Геннадий Фролов</string> / </dict> / <dict> / <key>name</key> / <string>Владимир Кашпур</string> / </dict> / </array> / <key>directors</key> / <array> / <dict> / <key>name</key> / <string>Александр Боголюбов</string> / </dict> / <dict> / <key>name</key> / <string>Владимир Чеботарев</string> / </dict> / </array> / <key>screenwriters</key> / <array> / <dict> / <key>name</key> / <string>Элизбар Караваев</string> / </dict> / <dict> / <key>name</key> / <string>Роман Веселер</string> / </dict> / </array> / </dict> / </plist>
desc : В основе сюжета лежит один из решающих этапов Великой Отечественной войны — форсирование советскими войсками Днепра в 1943 году. Два батальона брошены в гибельный прорыв на занятый немцами берег реки с целью отвлечь на себя силы противника и тем самым облегчить дивизии бросок на стратегически важный город Днепров. / / Основные соединения должны поддержать их артиллерийским и авиационным огнем. Однако командование внезапно меняет план наступления, оставляя батальоны без огневой поддержки, чем обрекает их на верную гибель. Более того, солдатам отдан приказ держаться до последнего.
Video
ID : 1
Format : AVC
Format/Info : Advanced Video Codec
Format profile : [email protected]
Format settings, CABAC : No
Format settings, ReFrames : 6 frames
Codec ID : avc1
Codec ID/Info : Advanced Video Coding
Duration : 1h 3mn
Bit rate mode : Variable
Bit rate : 896 Kbps
Maximum bit rate : 2 998 Kbps
Width : 480 pixels
Height : 360 pixels
Display aspect ratio : 4:3
Frame rate mode : Constant
Frame rate : 25.000 fps
Color space : YUV
Chroma subsampling : 4:2:0
Bit depth : 8 bits
Scan type : Progressive
Bits/(Pixel*Frame) : 0.207
Stream size : 406 MiB (87%)
Writing library : x264 core 65 r999kMod cc51047
Encoding settings : cabac=0 / ref=6 / deblock=1:0:0 / analyse=0x1:0x131 / me=umh / subme=6 / psy_rd=1.0:0.0 / mixed_ref=1 / me_range=16 / chroma_me=1 / trellis=0 / 8x8dct=0 / cqm=0 / deadzone=21,11 / chroma_qp_offset=-2 / threads=4 / thread_queue=4 / nr=0 / decimate=1 / mbaff=0 / bframes=0 / keyint=250 / keyint_min=25 / scenecut=40(pre) / rc=2pass / bitrate=896 / ratetol=1.0 / qcomp=0.60 / qpmin=10 / qpmax=51 / qpstep=4 / cplxblur=20.0 / qblur=0.5 / ip_ratio=1.40 / aq=1:1.00
Encoded date : UTC 2011-05-05 19:31:11
Tagged date : UTC 2011-05-05 19:31:17
Audio
ID : 2
Format : AAC
Format/Info : Advanced Audio Codec
Format profile : LC
Codec ID : 40
Duration : 1h 3mn
Bit rate mode : Variable
Bit rate : 128 Kbps
Maximum bit rate : 140 Kbps
Channel(s) : 2 channels
Channel positions : Front: L R
Sampling rate : 48.0 KHz
Compression mode : Lossy
Stream size : 58.1 MiB (12%)
Encoded date : UTC 2011-05-05 19:31:15
Tagged date : UTC 2011-05-05 19:31:17
_______________________________________
General
Complete name : Батальоны просят огня. 2 серия.mp4
Format : MPEG-4
Format profile : Base Media
Codec ID : isom
File size : 522 MiB
Duration : 1h 10mn
Overall bit rate : 1 030 Kbps
Movie name : Батальоны просят огня. 2 серия
Genre : War
Recorded date : 1985.02.18
Encoded date : UTC 2011-05-05 20:06:52
Tagged date : UTC 2011-05-06 20:34:23
Cover : Yes
iTunMOVI : <?xml version="1.0" encoding="UTF-8"?> / <!DOCTYPE plist PUBLIC "-/Apple/DTD PLIST 1.0/EN" "http://www.apple.com/DTDs/PropertyList-1.0.dtd"> / <plist version="1.0"> / <dict> / <key>cast</key> / <array> / <dict> / <key>name</key> / <string>Вадим Андреев</string> / </dict> / <dict> / <key>name</key> / <string>Александр Збруев</string> / </dict> / <dict> / <key>name</key> / <string>Борислав Брондуков</string> / </dict> / <dict> / <key>name</key> / <string>Вадим Спиридонов</string> / </dict> / <dict> / <key>name</key> / <string>Олег Ефремов</string> / </dict> / <dict> / <key>name</key> / <string>Александр Галибин</string> / </dict> / <dict> / <key>name</key> / <string>Елена Попова</string> / </dict> / <dict> / <key>name</key> / <string>Игорь Скляр</string> / </dict> / <dict> / <key>name</key> / <string>Геннадий Фролов</string> / </dict> / <dict> / <key>name</key> / <string>Владимир Кашпур</string> / </dict> / </array> / <key>directors</key> / <array> / <dict> / <key>name</key> / <string>Александр Боголюбов</string> / </dict> / <dict> / <key>name</key> / <string>Владимир Чеботарев</string> / </dict> / </array> / <key>screenwriters</key> / <array> / <dict> / <key>name</key> / <string>Элизбар Караваев</string> / </dict> / <dict> / <key>name</key> / <string>Роман Веселер</string> / </dict> / </array> / </dict> / </plist>
desc : В основе сюжета лежит один из решающих этапов Великой Отечественной войны — форсирование советскими войсками Днепра в 1943 году. Два батальона брошены в гибельный прорыв на занятый немцами берег реки с целью отвлечь на себя силы противника и тем самым облегчить дивизии бросок на стратегически важный город Днепров. / / Основные соединения должны поддержать их артиллерийским и авиационным огнем. Однако командование внезапно меняет план наступления, оставляя батальоны без огневой поддержки, чем обрекает их на верную гибель. Более того, солдатам отдан приказ держаться до последнего.
Video
ID : 1
Format : AVC
Format/Info : Advanced Video Codec
Format profile : [email protected]
Format settings, CABAC : No
Format settings, ReFrames : 6 frames
Codec ID : avc1
Codec ID/Info : Advanced Video Coding
Duration : 1h 10mn
Bit rate mode : Variable
Bit rate : 896 Kbps
Maximum bit rate : 2 227 Kbps
Width : 480 pixels
Height : 360 pixels
Display aspect ratio : 4:3
Frame rate mode : Constant
Frame rate : 25.000 fps
Color space : YUV
Chroma subsampling : 4:2:0
Bit depth : 8 bits
Scan type : Progressive
Bits/(Pixel*Frame) : 0.207
Stream size : 454 MiB (87%)
Writing library : x264 core 65 r999kMod cc51047
Encoding settings : cabac=0 / ref=6 / deblock=1:0:0 / analyse=0x1:0x131 / me=umh / subme=6 / psy_rd=1.0:0.0 / mixed_ref=1 / me_range=16 / chroma_me=1 / trellis=0 / 8x8dct=0 / cqm=0 / deadzone=21,11 / chroma_qp_offset=-2 / threads=4 / thread_queue=4 / nr=0 / decimate=1 / mbaff=0 / bframes=0 / keyint=250 / keyint_min=25 / scenecut=40(pre) / rc=2pass / bitrate=896 / ratetol=1.0 / qcomp=0.60 / qpmin=10 / qpmax=51 / qpstep=4 / cplxblur=20.0 / qblur=0.5 / ip_ratio=1.40 / aq=1:1.00
Encoded date : UTC 2011-05-05 20:06:52
Tagged date : UTC 2011-05-05 20:06:58
Audio
ID : 2
Format : AAC
Format/Info : Advanced Audio Codec
Format profile : LC
Codec ID : 40
Duration : 1h 10mn
Bit rate mode : Variable
Bit rate : 128 Kbps
Maximum bit rate : 142 Kbps
Channel(s) : 2 channels
Channel positions : Front: L R
Sampling rate : 48.0 KHz
Compression mode : Lossy
Stream size : 65.1 MiB (12%)
Encoded date : UTC 2011-05-05 20:06:56
Tagged date : UTC 2011-05-05 20:06:58
_______________________________________
General
Complete name : Батальоны просят огня. 3 серия.mp4
Format : MPEG-4
Format profile : Base Media
Codec ID : isom
File size : 501 MiB
Duration : 1h 7mn
Overall bit rate : 1 030 Kbps
Movie name : Батальоны просят огня. 3 серия
Genre : War
Recorded date : 1985.02.18
Encoded date : UTC 2011-05-05 20:40:58
Tagged date : UTC 2011-05-06 20:59:05
Cover : Yes
iTunMOVI : <?xml version="1.0" encoding="UTF-8"?> / <!DOCTYPE plist PUBLIC "-/Apple/DTD PLIST 1.0/EN" "http://www.apple.com/DTDs/PropertyList-1.0.dtd"> / <plist version="1.0"> / <dict> / <key>cast</key> / <array> / <dict> / <key>name</key> / <string>Вадим Андреев</string> / </dict> / <dict> / <key>name</key> / <string>Александр Збруев</string> / </dict> / <dict> / <key>name</key> / <string>Борислав Брондуков</string> / </dict> / <dict> / <key>name</key> / <string>Вадим Спиридонов</string> / </dict> / <dict> / <key>name</key> / <string>Олег Ефремов</string> / </dict> / <dict> / <key>name</key> / <string>Александр Галибин</string> / </dict> / <dict> / <key>name</key> / <string>Елена Попова</string> / </dict> / <dict> / <key>name</key> / <string>Игорь Скляр</string> / </dict> / <dict> / <key>name</key> / <string>Геннадий Фролов</string> / </dict> / <dict> / <key>name</key> / <string>Владимир Кашпур</string> / </dict> / </array> / <key>directors</key> / <array> / <dict> / <key>name</key> / <string>Александр Боголюбов</string> / </dict> / <dict> / <key>name</key> / <string>Владимир Чеботарев</string> / </dict> / </array> / <key>screenwriters</key> / <array> / <dict> / <key>name</key> / <string>Элизбар Караваев</string> / </dict> / <dict> / <key>name</key> / <string>Роман Веселер</string> / </dict> / </array> / </dict> / </plist>
desc : В основе сюжета лежит один из решающих этапов Великой Отечественной войны — форсирование советскими войсками Днепра в 1943 году. Два батальона брошены в гибельный прорыв на занятый немцами берег реки с целью отвлечь на себя силы противника и тем самым облегчить дивизии бросок на стратегически важный город Днепров. / / Основные соединения должны поддержать их артиллерийским и авиационным огнем. Однако командование внезапно меняет план наступления, оставляя батальоны без огневой поддержки, чем обрекает их на верную гибель. Более того, солдатам отдан приказ держаться до последнего.
Video
ID : 1
Format : AVC
Format/Info : Advanced Video Codec
Format profile : [email protected]
Format settings, CABAC : No
Format settings, ReFrames : 6 frames
Codec ID : avc1
Codec ID/Info : Advanced Video Coding
Duration : 1h 7mn
Bit rate mode : Variable
Bit rate : 896 Kbps
Maximum bit rate : 2 303 Kbps
Width : 480 pixels
Height : 360 pixels
Display aspect ratio : 4:3
Frame rate mode : Constant
Frame rate : 25.000 fps
Color space : YUV
Chroma subsampling : 4:2:0
Bit depth : 8 bits
Scan type : Progressive
Bits/(Pixel*Frame) : 0.207
Stream size : 435 MiB (87%)
Writing library : x264 core 65 r999kMod cc51047
Encoding settings : cabac=0 / ref=6 / deblock=1:0:0 / analyse=0x1:0x131 / me=umh / subme=6 / psy_rd=1.0:0.0 / mixed_ref=1 / me_range=16 / chroma_me=1 / trellis=0 / 8x8dct=0 / cqm=0 / deadzone=21,11 / chroma_qp_offset=-2 / threads=4 / thread_queue=4 / nr=0 / decimate=1 / mbaff=0 / bframes=0 / keyint=250 / keyint_min=25 / scenecut=40(pre) / rc=2pass / bitrate=896 / ratetol=1.0 / qcomp=0.60 / qpmin=10 / qpmax=51 / qpstep=4 / cplxblur=20.0 / qblur=0.5 / ip_ratio=1.40 / aq=1:1.00
Encoded date : UTC 2011-05-05 20:40:58
Tagged date : UTC 2011-05-05 20:41:03
Audio
ID : 2
Format : AAC
Format/Info : Advanced Audio Codec
Format profile : LC
Codec ID : 40
Duration : 1h 7mn
Bit rate mode : Variable
Bit rate : 128 Kbps
Maximum bit rate : 150 Kbps
Channel(s) : 2 channels
Channel positions : Front: L R
Sampling rate : 48.0 KHz
Compression mode : Lossy
Stream size : 62.4 MiB (12%)
Encoded date : UTC 2011-05-05 20:41:02
Tagged date : UTC 2011-05-05 20:41:03
__________________________________________
General
Complete name : Батальоны просят огня. 4 серия.mp4
Format : MPEG-4
Format profile : Base Media
Codec ID : isom
File size : 484 MiB
Duration : 1h 5mn
Overall bit rate : 1 030 Kbps
Movie name : Батальоны просят огня. 4 серия
Genre : War
Recorded date : 1985.02.18
Encoded date : UTC 2011-05-05 21:12:54
Tagged date : UTC 2011-05-06 21:17:36
Cover : Yes
iTunMOVI : <?xml version="1.0" encoding="UTF-8"?> / <!DOCTYPE plist PUBLIC "-/Apple/DTD PLIST 1.0/EN" "http://www.apple.com/DTDs/PropertyList-1.0.dtd"> / <plist version="1.0"> / <dict> / <key>cast</key> / <array> / <dict> / <key>name</key> / <string>Вадим Андреев</string> / </dict> / <dict> / <key>name</key> / <string>Александр Збруев</string> / </dict> / <dict> / <key>name</key> / <string>Борислав Брондуков</string> / </dict> / <dict> / <key>name</key> / <string>Вадим Спиридонов</string> / </dict> / <dict> / <key>name</key> / <string>Олег Ефремов</string> / </dict> / <dict> / <key>name</key> / <string>Александр Галибин</string> / </dict> / <dict> / <key>name</key> / <string>Елена Попова</string> / </dict> / <dict> / <key>name</key> / <string>Игорь Скляр</string> / </dict> / <dict> / <key>name</key> / <string>Геннадий Фролов</string> / </dict> / <dict> / <key>name</key> / <string>Владимир Кашпур</string> / </dict> / </array> / <key>directors</key> / <array> / <dict> / <key>name</key> / <string>Александр Боголюбов</string> / </dict> / <dict> / <key>name</key> / <string>Владимир Чеботарев</string> / </dict> / </array> / <key>screenwriters</key> / <array> / <dict> / <key>name</key> / <string>Элизбар Караваев</string> / </dict> / <dict> / <key>name</key> / <string>Роман Веселер</string> / </dict> / </array> / </dict> / </plist>
desc : В основе сюжета лежит один из решающих этапов Великой Отечественной войны — форсирование советскими войсками Днепра в 1943 году. Два батальона брошены в гибельный прорыв на занятый немцами берег реки с целью отвлечь на себя силы противника и тем самым облегчить дивизии бросок на стратегически важный город Днепров. / / Основные соединения должны поддержать их артиллерийским и авиационным огнем. Однако командование внезапно меняет план наступления, оставляя батальоны без огневой поддержки, чем обрекает их на верную гибель. Более того, солдатам отдан приказ держаться до последнего.
Video
ID : 1
Format : AVC
Format/Info : Advanced Video Codec
Format profile : [email protected]
Format settings, CABAC : No
Format settings, ReFrames : 6 frames
Codec ID : avc1
Codec ID/Info : Advanced Video Coding
Duration : 1h 5mn
Bit rate mode : Variable
Bit rate : 896 Kbps
Maximum bit rate : 2 577 Kbps
Width : 480 pixels
Height : 360 pixels
Display aspect ratio : 4:3
Frame rate mode : Constant
Frame rate : 25.000 fps
Color space : YUV
Chroma subsampling : 4:2:0
Bit depth : 8 bits
Scan type : Progressive
Bits/(Pixel*Frame) : 0.207
Stream size : 421 MiB (87%)
Writing library : x264 core 65 r999kMod cc51047
Encoding settings : cabac=0 / ref=6 / deblock=1:0:0 / analyse=0x1:0x131 / me=umh / subme=6 / psy_rd=1.0:0.0 / mixed_ref=1 / me_range=16 / chroma_me=1 / trellis=0 / 8x8dct=0 / cqm=0 / deadzone=21,11 / chroma_qp_offset=-2 / threads=4 / thread_queue=4 / nr=0 / decimate=1 / mbaff=0 / bframes=0 / keyint=250 / keyint_min=25 / scenecut=40(pre) / rc=2pass / bitrate=896 / ratetol=1.0 / qcomp=0.60 / qpmin=10 / qpmax=51 / qpstep=4 / cplxblur=20.0 / qblur=0.5 / ip_ratio=1.40 / aq=1:1.00
Encoded date : UTC 2011-05-05 21:12:54
Tagged date : UTC 2011-05-05 21:13:00
Audio
ID : 2
Format : AAC
Format/Info : Advanced Audio Codec
Format profile : LC
Codec ID : 40
Duration : 1h 5mn
Bit rate mode : Variable
Bit rate : 128 Kbps
Maximum bit rate : 141 Kbps
Channel(s) : 2 channels
Channel positions : Front: L R
Sampling rate : 48.0 KHz
Compression mode : Lossy
Stream size : 60.4 MiB (12%)
Encoded date : UTC 2011-05-05 21:12:58
Tagged date : UTC 2011-05-05 21:13:00



Вернуться к началу
 Профиль Отправить личное сообщение  
 
   Похожие торренты   Автор   Торрент   Размер 
В этой теме нет новых непрочитанных сообщений. Вечный зов [01-19 из 19] (Владимир Краснопольский, Валерий Усков) [Киноповесть, военный, драма, исторический, семейный, 1973-1983] HDTV 1080i

Dracon

43 | 25

78.59 ГБ

В этой теме нет новых непрочитанных сообщений. За линией огня / Behind Enemy Lines [Боевик, 1997] DVDRip, Dvo+Avo

salma3

38 | 0

1.46 ГБ

В этой теме нет новых непрочитанных сообщений. Линия огня [01-08 из 08] [Драма, криминал, 2017] HDTVRip-AVC

salma3

26 | 32

6.08 ГБ

В этой теме нет новых непрочитанных сообщений. Линия огня [01-08 из 08] [Драма, криминал, 2017] HDTVRip

salma3

73 | 24

4.69 ГБ

В этой теме нет новых непрочитанных сообщений. Линия огня [01 из 08] [Драма, криминал, 2017] HDTVRip

salma3

4 | 2

600.16 МБ

В этой теме нет новых непрочитанных сообщений. Линия огня [01-08 из 08] [Драма, криминал, 2017] WEBRip

salma3

0 | 0

4.35 ГБ

В этой теме нет новых непрочитанных сообщений. Пришелец / Zone Troopers [ужасы, фантастика, военный, 1985] BDRip 720p, Mvo

salma3

2 | 3

4.9 ГБ


Начать новую тему Ответить на тему  [ 1 сообщение ] 




Для Мосгорсуда, Роскомнадзора и рекламодателей:: mosgorsud-torrent[собачка]yandex.ru
cron