Торрент файл
скачать торрент магнет ссылка Добавлен: 11 янв 2013, 22:09
Размер: 1.92 ГБ
Сидеров: 2
Личеров: 4
Автор

СообщениеДобавлено: 11 янв 2013, 22:09 

Не в сети
Супермодератор
Аватара пользователя
Дата регистрации:
11 апр 2010, 18:10
Спасибо: 5996 / 7
Сообщения: 56684
id="p-25224744-1">Миссия Дарвина / G-Force«Пушистые и беспощадные»

Год выпуска: 2009
Страна: США, Walt Disney Pictures
Жанр: комедия, фэнтези, приключения, семейный
Продолжительность: 01:28:16
Перевод: Профессиональный (полное дублирование)
Русские субтитры: есть
Режиссер: Хойт Йетмен / Hoyt Yeatman
В ролях: Сэм Рокуэлл, Джон Фавро, Пенелопа Крус, Николас Кейдж, Трэйси Морган, Стив Бушеми, Билл Найи, Уилл Арнетт, Зак Галифианакис, Келли Гарне, Тайлер Патрик Джонс
Описание: «Миссия Дарвина» — это суперкоманда морских свинок, работающих на правительство США. Для выполнения специальных заданий зверьков подготовил один ученый, и теперь они могут проникать в места, недоступные для людей, вооружившись самыми современными технологиями.
В спецподразделение входят: Дарвин — командир отряда, спец по коммуникациям; Хуарес — единственная девушка в команде, спец по боевым искусствам; Бластер — «мускулы» команды. Вместе им предстоит разрушить планы злого гения, мечтающего захватить власть над миром.
Качество: HD 720p
Исходник: HDRip
Формат: m4v
Видео кодек: H.264
Аудио кодек: AAC
Видео: 1280x536, 2772 Kbps, 23,976 fps
Аудио RUS: 48 kHz, AAC, 2ch, 160 kbps - Профессиональный (полное дублирование)
Аудио ENG: 48 kHz, AAC, 2ch, 172 kbps - Оригинал
MediaInfo
Код:
Код:
Полное имя : F:\G-Force.m4v
Формат : MPEG-4
Идентификатор кодека : M4V
Размер файла : 1,92 Гбайт
Продолжительность : 1 ч. 28 м.
Общий поток : 3116 Кбит/сек
Название фильма : Миссия Дарвина
Исполнитель : Hoyt Yeatman
Жанр : Kids & Family
Дата записи : UTC 2009-07-24 07:00:00
Обложка : Yes
soar : Hoyt Yeatman
desc : «Миссия Дарвина» — это суперкоманда морских свинок, работающих на правительство США. Для выполнения специальных заданий зверьков подготовил один ученый, и теперь они могут проникать в места, недоступные для людей, вооружившись самыми современными тех
ldes : «Миссия Дарвина» — это суперкоманда морских свинок, работающих на правительство США. Для выполнения специальных заданий зверьков подготовил один ученый, и теперь они могут проникать в места, недоступные для людей, вооружившись самыми современными технологиями.
hdvd : 1
cnID : 327688173
xid : iPad:vendor_id:2009-88202
iTunEXTC : mpaa|PG|200|
iTunMOVI : / / / / cast / / / name / Сэм Рокуэлл / / / name / Джон Фавро / / / name / Пенелопа Крус / / / name / Трэйси Морган / / / name / Стив Бушеми / / / name / Билл Найи / / / name / Уилл Арнетт / / / name / Зак Галифианакис / / / name / Келли Гарнер / / / name / Тайлер Патрик Джонс / / / name / Пайпер МакКензи Харрис / / / name / Гэбриел Коссес / / / name / Джек Конли / / / name / Найси Нэш / / / name / Джастин Ментелл / / / name / Лаудон Уэйнрайт III / / / name / Крис Эллис / / / name / Трэвис Дэвис / / / name / Джеймс Хуанг / / / name / Кори Майкл Юбанкс / / / directors / / / name / Хойт Йетмен / / / producers / / / name / Джерри Брукхаймер / / / name / Тед Эллиот / / / name / Дункан Хендерсон / / / screenwriters / / / name / Кормак Уибберли / / / name / Мэриэнн Уибберли / / / name / Хойт Йетмен / / / /
Видео
Идентификатор : 1
Формат : AVC
Формат/Информация : Advanced Video Codec
Профиль формата : [email protected]
Параметр CABAC формата : Да
Параметр ReFrames формата : 11 кадры
Идентификатор кодека : avc1
Идентификатор кодека/Информация : Advanced Video Coding
Продолжительность : 1 ч. 28 м.
Вид битрейта : Переменный
Битрейт : 2772 Кбит/сек
Максимальный битрейт : 30,3 Мбит/сек
Ширина : 1280 пикс.
Высота : 536 пикс.
Соотношение сторон : 2,35:1
Режим частоты кадров : Постоянный
Частота кадров : 23,976 кадр/сек
Цветовое пространство : YUV
Подвыборка цветности : 4:2:0
Битовая глубина : 8 бит
Тип развёртки : Прогрессивная
Бит/(Пиксели*Кадры) : 0.169
Размер потока : 1,71 Гбайт (89%)
Библиотека кодирования : x264 core 79 r1342kMod e8501ef
Настройки программы : cabac=1 / ref=11 / deblock=1:-3:-2 / analyse=0x3:0x133 / me=umh / subme=10 / psy=1 / psy_rd=1.0:0.0 / mixed_ref=1 / me_range=32 / chroma_me=1 / trellis=2 / 8x8dct=1 / cqm=0 / deadzone=21,11 / chroma_qp_offset=-2 / threads=6 / nr=0 / decimate=1 / mbaff=0 / constrained_intra=0 / bframes=3 / b_pyramid=0 / b_adapt=2 / b_bias=0 / direct=3 / wpredb=1 / wpredp=2 / keyint=250 / keyint_min=25 / scenecut=40 / rc_lookahead=120 / rc=2pass / mbtree=1 / bitrate=2772 / ratetol=1.0 / qcomp=0.60 / qpmin=10 / qpmax=51 / qpstep=4 / cplxblur=20.0 / qblur=0.5 / ip_ratio=1.40 / aq=1:1.00
Язык : English
Дата кодирования : UTC 2011-11-03 14:35:56
Дата пометки : UTC 2011-11-03 14:37:20
Аудио #1
Идентификатор : 2
Формат : AAC
Формат/Информация : Advanced Audio Codec
Профиль формата : LC
Идентификатор кодека : 40
Продолжительность : 1 ч. 28 м.
Вид битрейта : Переменный
Битрейт : 160 Кбит/сек
Максимальный битрейт : 219 Кбит/сек
Канал(ы) : 2 канала(ов)
Расположение каналов : Front: L R
Частота : 48,0 КГц
Метод сжатия : С потерями
Размер потока : 101 Мбайт (5%)
Заголовок : Russian stereo
Язык : Russian
Дата кодирования : UTC 2011-11-03 14:37:08
Дата пометки : UTC 2011-11-03 14:37:20
Аудио #2
Идентификатор : 3
Формат : AAC
Формат/Информация : Advanced Audio Codec
Профиль формата : LC
Идентификатор кодека : 40
Продолжительность : 1 ч. 28 м.
Вид битрейта : Переменный
Битрейт : 172 Кбит/сек
Максимальный битрейт : 234 Кбит/сек
Канал(ы) : 2 канала(ов)
Расположение каналов : Front: L R
Частота : 48,0 КГц
Метод сжатия : С потерями
Размер потока : 109 Мбайт (6%)
Заголовок : English stereo
Язык : English
Дата кодирования : UTC 2011-11-03 14:37:14
Дата пометки : UTC 2011-11-03 14:37:20
Текст #1
Идентификатор : 4
Формат : Timed text
Режим смешивания : sbtl
Идентификатор кодека : tx3g
Продолжительность : 1 ч. 23 м.
Вид битрейта : Переменный
Битрейт : 124 бит/сек
Размер потока : 75,5 Кбайт (0%)
Заголовок : Russian
Язык : Russian
Дата кодирования : UTC 2011-11-03 14:37:19
Дата пометки : UTC 2011-11-03 14:37:20
Текст #2
Идентификатор : 5
Формат : Timed text
Режим смешивания : sbtl
Идентификатор кодека : tx3g
Продолжительность : 1 ч. 23 м.
Вид битрейта : Переменный
Битрейт : 80 бит/сек
Размер потока : 49,0 Кбайт (0%)
Заголовок : English
Язык : English
Дата кодирования : UTC 2011-11-03 14:37:19
Дата пометки : UTC 2011-11-03 14:37:20

Скриншоты



Вернуться к началу
 Профиль Отправить личное сообщение  
 
   Похожие торренты   Автор   Торрент   Размер 
В этой теме нет новых непрочитанных сообщений. Большой и добрый великан / The BFG [фэнтези, приключения, семейный, 2016] BDRip 720p, Dub [iPad] [Лицензия]

salma3

0 | 0

2.26 ГБ

В этой теме нет новых непрочитанных сообщений. Астерикс и Обеликс: Миссия Клеопатра / Astеrix & Obеlix: Mission Clеopаtre [фэнтези, комедия, приключения, семейный, 2001] BDRip, Dub

salma3

33 | 20

2.18 ГБ

В этой теме нет новых непрочитанных сообщений. Дом странных детей Мисс Перегрин / Miss Peregrine's Home for Peculiar Children (Фэнтези, драма, приключения, семейный, 2016) BDRip | iPad | iTunes

marya111

484 | 83

1.49 ГБ

В этой теме нет новых непрочитанных сообщений. Защитники [фантастика, фэнтези, боевик, приключения, 2017] BDRip 720p [iPad] [Лицензия]

salma3

368 | 63

2.08 ГБ

В этой теме нет новых непрочитанных сообщений. Кредо убийцы / Assassin's Creed [фантастика, фэнтези, боевик, приключения, 2016] BDRip 720p, Dub [iPad]

salma3

195 | 22

1.94 ГБ

В этой теме нет новых непрочитанных сообщений. Агент 117: Миссия в Рио / OSS 117: Rio ne repond plus [Комедия, приключения, 2009] BDRip, Dub+Sub

salma3

89 | 21

2.18 ГБ

В этой теме нет новых непрочитанных сообщений. Доктор Стрэндж / Doctor Strange [фантастика, фэнтези, боевик, приключения, 2016] BDRip 720p, Dub [iPad] [Лицензия]

salma3

143 | 10

2.04 ГБ


Начать новую тему Ответить на тему  [ 1 сообщение ] 




Для Мосгорсуда, Роскомнадзора и рекламодателей:: mosgorsud-torrent[собачка]yandex.ru
cron