Торрент файл
скачать торрент магнет ссылка Добавлен: 05 янв 2013, 22:53
Размер: 874.34 МБ
Сидеров: 2
Личеров: 3
Автор

СообщениеДобавлено: 05 янв 2013, 22:53 

Не в сети
Супермодератор
Аватара пользователя
Дата регистрации:
11 апр 2010, 18:10
Спасибо: 5995 / 7
Сообщения: 56685
id="p-25224744-1">Диктатор / The Dictator (Театральная версия)
Год выпуска: 2012
Страна: США
Жанр: комедия
Продолжительность: 01:23:18
Перевод : Профессиональный (многоголосый, полное дублирование)
Субтитры: Русские, Английские
Режиссёр: Ларри Чарльз
Описание: Героическая история диктатора, который рискует своей жизнью, чтобы ни в коем случае не допустить демократию в свою столь любовно угнетаемую страну.
Доп. информация:
~ В эпизоде №100 (сезон 17) «Ежедневного шоу» c Джоном Стюартом раскрывается, что первое имя Аладина - Шабазз.
~ Фотографии возлюбленных Аладина, в дополнение к Меган Фокс, включают в себя, в том числе и Линдси Лохан, Холли Берри, Эллен ДеДженерес и Арнольда Шварценеггера.
~ На самом деле Аладин и Надал на вертолётной экскурсии разговаривают на иврите, а не на арабском языке.
~ В сцене, где Аладин развлекается с девушками, они оголяются по пояс. В следующей сцене все девушки кроме одной одеты.
~ Дополнительные сцены во время финальных титров включают в себя так же и моменты создания фильма.
~ Вымышленная Республика Вадия расположена там же, где находится реальная страна Эритрея.
~ Саша Барон Коэн посетил 84-ю церемонию вручения премии «Оскар» в образе Аладина, он был одет в тот же костюм, что и в фильме и сопровождался своими «охранниками-девственницами». Во время интервью ничего не подозревающему Райану Сикресту он держал урну, в которой, как он утверждал, находился прах покойного северокорейского диктатора Ким Чен Ира. А дальше Коэн высыпал пепел прямо на смокинг Сикресту.
~ В рекламных снимках главного героя на белом фоне, он носит орденские ленты, среди которых:
• Медаль за «Службу в Антарктике» (третий ряд, крайняя левая).
• Медаль «Освобождения Кувейта» (седьмой ряд, крайняя левая).
• Медаль за «Защиту Филиппинских островов во Второй Мировой войне» (пятый ряд, крайняя левая) и медаль за «Освобождение Филиппин» (пятый ряд, вторая слева).
• Одна похожа на Бельгийскую медаль «За боевые заслуги» (пятый ряд, крайняя правая).
• Французская медаль «За боевые заслуги» (пятый ряд, вторая справа). Есть как минимум два повторения: 16 ряд, справа с краю та же медаль, что и в 14 ряду, вторая справа, и в 11 ряду, слева с краю. На рекламном постере к фильму, по крайней мере, одна медаль (Бельгийская медаль «За боевые заслуги») изменена, и есть повторения целыми группами: 11 и 12 ряды повторяются так же, как и 18 и 19.
~ У Зои карие глаза, но на огромном плакате, который Аладин разместил в магазине, они голубые.
Когда Адмирал-генерал Аладин спускается по тросу, то сначала он держится за ручки двумя руками. В следующем кадре он появляется висящим на проводе, без объяснения того как это произошло.
Качество: BDRip
Формат: *.m4v
Видео кодек: H.264
аудио кодек: ААС
Разрешение: 720x320
Другие параметры видео: 1200 Kbps, 23.976 fps
Аудио #1 (Русская дорожка): 128 Kbps, 48.0 KHz
Аудио #2 (Английская дорожка): 128 Kbps, 48.0 KHz
Вшитая обложка: есть
Доп. теги (режиссёр, актёры и т.д.): прописаны
Главы: прописаны
MediaInfo
General
Complete name : C:\Users\Narek\Desktop\Торрент\Диктатор, The Dictator [rus], [eng]\Диктатор, The Dictator [rus], [eng].mp4
Format : MPEG-4
Format profile : Base Media
Codec ID : isom
File size : 874 MiB
Duration : 1h 23mn
Overall bit rate mode : Variable
Overall bit rate : 1 467 Kbps
Movie name : Диктатор
Genre : комедия
Recorded date : 07.05.12
Encoded date : UTC 2012-08-28 18:12:25
Tagged date : UTC 2012-08-29 18:41:25
Writing application : Yamb 2.1.0.0 []http://yamb.unite-video.com]
Cover : Yes
desc : Героическая история диктатора, который рискует своей жизнью, чтобы ни в коем случае не допустить демократию в свою столь любовно угнетаемую страну.
hdvd : 1
stik : 9
iTunEXTC : mpaa|R|400|
iTunMOVI : <?xml version="1.0" encoding="UTF-8"?> / <!DOCTYPE plist PUBLIC "-/Apple/DTD PLIST 1.0/EN" "http://www.apple.com/DTDs/PropertyList-1.0.dtd"> / <plist version="1.0"> / <dict> / <key>cast</key> / <array> / <dict> / <key>name</key> / <string>Саша Барон Коэн</string> / </dict> / <dict> / <key>name</key> / <string>Анна Фэрис</string> / </dict> / <dict> / <key>name</key> / <string>Бен Кингсли</string> / </dict> / <dict> / <key>name</key> / <string>Джейсон Манцукас</string> / </dict> / <dict> / <key>name</key> / <string>Саид Бадрия</string> / </dict> / <dict> / <key>name</key> / <string>Мишель Берг</string> / </dict> / <dict> / <key>name</key> / <string>Роки Ситрон</string> / </dict> / <dict> / <key>name</key> / <string>Лиам Кампора</string> / </dict> / <dict> / <key>name</key> / <string>Аасиф Мандви</string> / </dict> / <dict> / <key>name</key> / <string>Ризван Манжи</string> / </dict> / </array> / <key>directors</key> / <array> / <dict> / <key>name</key> / <string>Ларри Чарльз</string> / </dict> / </array> / <key>producers</key> / <array> / <dict> / <key>name</key> / <string>Саша Барон Коэн</string> / </dict> / <dict> / <key>name</key> / <string>Алек Берг</string> / </dict> / <dict> / <key>name</key> / <string>Дэвид Мэндел</string> / </dict> / </array> / <key>screenwriters</key> / <array> / <dict> / <key>name</key> / <string>Саша Барон Коэн</string> / </dict> / <dict> / <key>name</key> / <string>Алек Берг</string> / </dict> / <dict> / <key>name</key> / <string>Дэвид Мэндел</string> / </dict> / </array> / </dict> / </plist>
Video
ID : 1
Format : AVC
Format/Info : Advanced Video Codec
Format profile : [email protected]
Format settings, CABAC : No
Format settings, ReFrames : 4 frames
Codec ID : avc1
Codec ID/Info : Advanced Video Coding
Duration : 1h 23mn
Bit rate : 1 200 Kbps
Maximum bit rate : 7 463 Kbps
Width : 720 pixels
Height : 320 pixels
Display aspect ratio : 2.25:1
Frame rate mode : Variable
Frame rate : 23.976 fps
Minimum frame rate : 23.810 fps
Maximum frame rate : 24.390 fps
Color space : YUV
Chroma subsampling : 4:2:0
Bit depth : 8 bits
Scan type : Progressive
Bits/(Pixel*Frame) : 0.217
Stream size : 715 MiB (82%)
Writing library : x264 core 120
Encoding settings : cabac=0 / ref=4 / deblock=1:0:0 / analyse=0x1:0x111 / me=umh / subme=6 / psy=1 / psy_rd=1.00:0.00 / mixed_ref=1 / me_range=16 / chroma_me=1 / trellis=0 / 8x8dct=0 / cqm=0 / deadzone=21,11 / fast_pskip=1 / chroma_qp_offset=-2 / threads=3 / sliced_threads=0 / nr=0 / decimate=1 / interlaced=0 / bluray_compat=0 / constrained_intra=0 / bframes=0 / weightp=0 / keyint=240 / keyint_min=24 / scenecut=40 / intra_refresh=0 / rc_lookahead=40 / rc=2pass / mbtree=1 / bitrate=1200 / ratetol=1.0 / qcomp=0.60 / qpmin=3 / qpmax=69 / qpstep=4 / cplxblur=20.0 / qblur=0.5 / ip_ratio=1.40 / aq=1:1.00
Encoded date : UTC 2012-08-16 21:51:48
Tagged date : UTC 2012-08-28 18:14:07
Color primaries : BT.601-6 525, BT.1358 525, BT.1700 NTSC, SMPTE 170M
Transfer characteristics : BT.709-5, BT.1361
Matrix coefficients : BT.601-6 525, BT.1358 525, BT.1700 NTSC, SMPTE 170M
Audio #1
ID : 2
Format : AAC
Format/Info : Advanced Audio Codec
Format profile : LC
Codec ID : 40
Duration : 1h 23mn
Bit rate mode : Variable
Bit rate : 128 Kbps
Maximum bit rate : 247 Kbps
Channel(s) : 2 channels
Channel positions : Front: L R
Sampling rate : 48.0 KHz
Compression mode : Lossy
Stream size : 76.1 MiB (9%)
Language : Russian
Encoded date : UTC 2012-08-28 18:13:58
Tagged date : UTC 2012-08-28 18:14:07
Audio #2
ID : 3
Format : AAC
Format/Info : Advanced Audio Codec
Format profile : LC
Codec ID : 40
Duration : 1h 23mn
Bit rate mode : Variable
Bit rate : 128 Kbps
Maximum bit rate : 218 Kbps
Channel(s) : 2 channels
Channel positions : Front: L R
Sampling rate : 48.0 KHz
Compression mode : Lossy
Stream size : 76.2 MiB (9%)
Language : English
Encoded date : UTC 2012-08-28 18:14:03
Tagged date : UTC 2012-08-28 18:14:07
Text #1
ID : 4
Format : Timed text
Muxing mode : sbtl
Codec ID : tx3g
Duration : 1h 16mn
Bit rate mode : Variable
Bit rate : 86 bps
Stream size : 48.5 KiB (0%)
Language : English
Encoded date : UTC 2012-08-28 18:14:06
Tagged date : UTC 2012-08-28 18:14:07
Text #2
ID : 5
Format : Timed text
Muxing mode : sbtl
Codec ID : tx3g
Duration : 1h 16mn
Bit rate mode : Variable
Bit rate : 137 bps
Stream size : 77.1 KiB (0%)
Language : Russian
Encoded date : UTC 2012-08-28 18:14:07
Tagged date : UTC 2012-08-28 18:14:07
Text #3
ID : 7
Format : Apple text
Codec ID : text
Duration : 1h 23mn
Duration_LastFrame : -6mn 42s
Bit rate mode : Constant
Bit rate : 0 bps
Stream size : 126 Bytes (0%)
Encoded date : UTC 2012-08-29 18:41:25
Tagged date : UTC 2012-08-29 18:41:25
Скриншоты



Вернуться к началу
 Профиль Отправить личное сообщение  
 
   Похожие торренты   Автор   Торрент   Размер 
В этой теме нет новых непрочитанных сообщений. Ларри Краун / Larry Crowne [драма, мелодрама, комедия, 2011] BDRip, Dub

salma3

61 | 13

1.46 ГБ

В этой теме нет новых непрочитанных сообщений. Грязная Мэри, сумасшедший Ларри / Dirty Mary Crazy Larry [триллер, драма, мелодрама, криминал, 1974] HDRip, Mvo

salma3

72 | 16

1.45 ГБ

В этой теме нет новых непрочитанных сообщений. Джек Ричер 1-2 / Jack Reacher 1-2 ( Кристофер МакКуорри, Эдвард Цвик) [2012- 2016 ,Боевик, триллер, криминал, детектив, экранизация , BDRip 1080p] [DD5.1] [Dub Rus, Englis + Subs Rus, ENG] [ iTunes]

Враг Нароода

1 | 3

16.63 ГБ

В этой теме нет новых непрочитанных сообщений. Пираты Карибского моря: Мертвецы не рассказывают сказки / Pirates of the Caribbean: Dead Men Tell No Tales [2017] (Хоаким Роннинг) [Фэнтези, боевик, комедия, приключения] [BDRip] [1080p] [DD5.1] [Dub Rus,Ukr,Englis + Subs Rus , ENG] [Лиценз

Враг Нароода

0 | 0

20.17 ГБ

В этой теме нет новых непрочитанных сообщений. Суперстюард / Larry Gaye: Renegade Male Flight Attendant [комедия, 2015] HDRip, Dub

salma3

38 | 12

1.46 ГБ

В этой теме нет новых непрочитанных сообщений. Прочь / Get Out [2017] ( Джордан Пил) [Ужасы, детектив ] [BDRip 1080p] [DD5.1] [Dub Rus, Englis + Subs Rus , ENG] [ iTunes]

Враг Нароода

1 | 2

17.22 ГБ

В этой теме нет новых непрочитанных сообщений. Хоббит: Коллекция / The Hobbit: Collection (Питер Джексон) [2012-2014 , Фэнтези, приключения, экранизация , BluRay 1080p] [DD5.1] [ Subs Rus,Ukr,ENG] [ Лицензия]

marya111

0 | 1

69.09 ГБ


Начать новую тему Ответить на тему  [ 1 сообщение ] 




Для Мосгорсуда, Роскомнадзора и рекламодателей:: mosgorsud-torrent[собачка]yandex.ru
cron