Торрент файл
скачать торрент магнет ссылка Добавлен: 05 янв 2013, 22:52
Размер: 1.7 ГБ
Сидеров: 2
Личеров: 3
Автор

СообщениеДобавлено: 05 янв 2013, 22:52 

Не в сети
Супермодератор
Аватара пользователя
Дата регистрации:
11 апр 2010, 18:10
Спасибо: 5995 / 7
Сообщения: 56685
id="p-25224744-1">Пoлнoчь в Пapижe / Мidnight in Раris
Год выпуска: 2011
Страна: США, Испания
Студия: Sony Pictures
Жанр: Фэнтези, мелодрама, комедия
Продолжительность: 01:34:16
Рейтинг MPAA: PG-13
Перевод: Профессиональный (дублированный)
Перевод 2: Авторский (одноголосый закадровый) Сербин
Оригинальная аудиодорожка: есть
Cубтитры: только русские
Режиссёр: Bуди Aллeн/Wооdу Аllеn
Сценарий: Bуди Aллен
Продюссер: Летти Аронсон, Хаум Рурес, Стивен Тененбаум
В ролях: Оуэн Уилсон, Марион Котийяр, Рэйчел МакАдамс, Курт Фуллер, Мими Кеннеди, Майкл Шин, Нина Арианда, Карла Бруни, Морис Зонненберг, Тьерри Ханчиссе, Гийом Гуи
Описание:
Писатель и безнадежный романтик, уверенный в том, что должен был жить в 1920-е годы, приезжает в Париж со своей возлюбленной на каникулы и попадает в прошлое. Встречаясь там с Хемингуэем, Пикассо, супругами Фицжеральдами, Гертрудой Стайн он понимает, что принадлежит этому времени и хочет остаться там навсегда.
Доп. информация:

Качество исходника: BDRemux - Полночь в Париже / Midnight in Paris / 2011 / ДБ, АП (Сербин), СТ / Blu-Ray Remux (1080p)
Качество: BDRip
Разрешение: 1024х544
Формат: MP4
Видео: H.264, 1,882 , 2200kbit/s; 23.976fps
Аудио: Russian/Dub, AAC, 125kbit/s; 2ch; 48KHz
Аудио №2: Russian/AVO, AAC, 123kbit/s; 2ch; 48KHz
Аудио №3: English/Original, AAC, 123kbit/s; 2ch; 48KHz
iTunes Meta Tags
Код:
XID: Apple:vendor_id:2011-504465
contentID: 485597050
Screenwriters: Вуди Аллен
Producers: Летти Аронсон, Хаум Рурес, Стивен Тененбаум
Director: Вуди Аллен
Cast: Оуэн Уилсон, Марион Котийяр, Рэйчел МакАдамс, Курт Фуллер, Мими Кеннеди, Майкл Шин, Нина Арианда, Карла Бруни, Морис Зонненберг, Тьерри Ханчиссе, Гийом Гуи
Rating: 4
Long Description: Писатель и безнадежный романтик, уверенный в том, что должен был жить в 1920-е годы, приезжает в Париж со своей возлюбленной на каникулы и попадает в прошлое. Встречаясь там с Хемингуэем, Пикассо, супругами Фицжеральдами, Гертрудой Стайн он понимает, что принадлежит этому времени и хочет остаться там навсегда.
Description: Писатель и безнадежный романтик, уверенный в том, что должен был жить в 1920-е годы, приезжает в Париж со своей возлюбленной на каникулы и попадает в прошлое.
Release Date: 2011-05-11T15:00:00Z
Genre: Comedy
Artist: Вуди Аллен
Name: Полночь в Париже
MediaInfo
Код:
General
Complete name: /Users/imac/HandBrake/Полночь в Париже.2011.x264.BDRip.1024x.m4v
Format: MPEG-4
Codec ID: M4V
File size: 1.70 GiB
Duration: 1h 34mn
Overall bit rate mode: Variable
Overall bit rate: 2 582 Kbps
Movie name: Полночь в Париже
Performer: Вуди Аллен
Genre: Comedy
Recorded date: UTC 2011-05-11 15:00:00
Encoded date: UTC 2012-11-05 22:43:00
Tagged date: UTC 2012-11-05 22:43:33
Cover: Yes
desc: Писатель и безнадежный романтик, уверенный в том, что должен был жить в 1920-е годы, приезжает в Париж со своей возлюбленной на каникулы и попадает в прошлое.
ldes: Писатель и безнадежный романтик, уверенный в том, что должен был жить в 1920-е годы, приезжает в Париж со своей возлюбленной на каникулы и попадает в прошлое. Встречаясь там с Хемингуэем, Пикассо, супругами Фицжеральдами, Гертрудой Стайн он понимает, что принадлежит этому времени и хочет остаться там навсегда.
stik: 9
rtng: 0
cnID: 485597050
xid: Apple:vendor_id:2011-504465
iTunEXTC: mpaa|PG-13|300|
iTunMOVI: <?xml version="1.0" encoding="UTF-8"?> / <!DOCTYPE plist PUBLIC "-/Apple/DTD PLIST 1.0/EN" "http://www.apple.com/DTDs/PropertyList-1.0.dtd"> / <plist version="1.0"> / <dict> /<key>cast</key> /<array> /<dict> /<key>name</key> /<string>Оуэн Уилсон</string> /</dict> /<dict> /<key>name</key> /<string>Марион Котийяр</string> /</dict> /<dict> /<key>name</key> /<string>Рэйчел МакАдамс</string> /</dict> /<dict> /<key>name</key> /<string>Курт Фуллер</string> /</dict> /<dict> /<key>name</key> /<string>Мими Кеннеди</string> /</dict> /<dict> /<key>name</key> /<string>Майкл Шин</string> /</dict> /<dict> /<key>name</key> /<string>Нина Арианда</string> /</dict> /<dict> /<key>name</key> /<string>Карла Бруни</string> /</dict> /<dict> /<key>name</key> /<string>Морис Зонненберг</string> /</dict> /<dict> /<key>name</key> /<string>Тьерри Ханчиссе</string> /</dict> /<dict> /<key>name</key> /<string>Гийом Гуи</string> /</dict> /</array> /<key>directors</key> /<array> /<dict> /<key>name</key> /<string>Вуди Аллен</string> /</dict> /</array> /<key>producers</key> /<array> /<dict> /<key>name</key> /<string>Летти Аронсон</string> /</dict> /<dict> /<key>name</key> /<string>Хаум Рурес</string> /</dict> /<dict> /<key>name</key> /<string>Стивен Тененбаум</string> /</dict> /</array> /<key>screenwriters</key> /<array> /<dict> /<key>name</key> /<string>Вуди Аллен</string> /</dict> /</array> / </dict> / </plist>
Video #1
ID: 1
Format: AVC
Format/Info: Advanced Video Codec
Format profile: [email protected]
Format settings, CABAC: Yes
Format settings, ReFrames: 9 frames
Codec ID: avc1
Codec ID/Info: Advanced Video Coding
Duration: 1h 34mn
Bit rate mode: Variable
Bit rate: 2 200 Kbps
Width: 1 024 pixels
Height: 544 pixels
Display aspect ratio: 1.882
Frame rate mode: Variable
Frame rate: 23.976 fps
Minimum frame rate: 22.613 fps
Maximum frame rate: 23.981 fps
Color space: YUV
Chroma subsampling: 4:2:0
Bit depth: 8 bits
Scan type: Progressive
Bits/(Pixel*Frame): 0.165
Stream size: 1.45 GiB (85%)
Writing library: x264 core 120
Encoding settings: cabac=1 / ref=9 / deblock=1:0:0 / analyse=0x3:0x113 / me=umh / subme=9 / psy=1 / psy_rd=1.00:0.00 / mixed_ref=1 / me_range=32 / chroma_me=1 / trellis=1 / 8x8dct=1 / cqm=0 / deadzone=21,11 / fast_pskip=1 / chroma_qp_offset=-2 / threads=12 / sliced_threads=0 / nr=0 / decimate=1 / interlaced=0 / bluray_compat=0 / constrained_intra=0 / bframes=6 / b_pyramid=2 / b_adapt=2 / b_bias=0 / direct=1 / weightb=1 / open_gop=0 / weightp=2 / keyint=240 / keyint_min=24 / scenecut=40 / intra_refresh=0 / rc_lookahead=40 / rc=2pass / mbtree=1 / bitrate=2200 / ratetol=1.0 / qcomp=0.60 / qpmin=3 / qpmax=69 / qpstep=4 / cplxblur=20.0 / qblur=0.5 / ip_ratio=1.40 / aq=1:1.00
Language: English
Encoded date: UTC 2012-11-05 22:43:01
Tagged date: UTC 2012-11-05 22:43:18
Color primaries: BT.709-5, BT.1361, IEC 61966-2-4, SMPTE RP177
Transfer characteristics: BT.709-5, BT.1361
Matrix coefficients: BT.709-5, BT.1361, IEC 61966-2-4 709, SMPTE RP177
Video #2
ID: 7
Format: JPEG
Codec ID: jpeg
Duration: 1h 34mn
Bit rate mode: Variable
Bit rate: 1 292 bps
Width: 640 pixels
Height: 340 pixels
Display aspect ratio: 1.882
Frame rate mode: Variable
Frame rate: 0.003 fps
Minimum frame rate: 0.002 fps
Maximum frame rate: 0.004 fps
Color space: YUV
Chroma subsampling: 4:2:0
Bit depth: 8 bits
Compression mode: Lossy
Bits/(Pixel*Frame): 1.979
Stream size: 841 KiB (0%)
Language: English
Encoded date: UTC 2012-11-05 22:43:33
Tagged date: UTC 2012-11-05 22:43:33
Audio #1
ID: 2
Format: AAC
Format/Info: Advanced Audio Codec
Format profile: LC
Codec ID: 40
Duration: 1h 34mn
Bit rate mode: Variable
Bit rate: 125 Kbps
Maximum bit rate: 206 Kbps
Channel(s): 2 channels
Channel positions: Front: L R
Sampling rate: 48.0 KHz
Compression mode: Lossy
Stream size: 84.4 MiB (5%)
Language: Russian
Encoded date: UTC 2012-11-05 22:43:01
Tagged date: UTC 2012-11-05 22:43:20
Audio #2
ID: 3
Format: AAC
Format/Info: Advanced Audio Codec
Format profile: LC
Codec ID: 40
Duration: 1h 34mn
Bit rate mode: Variable
Bit rate: 123 Kbps
Maximum bit rate: 202 Kbps
Channel(s): 2 channels
Channel positions: Front: L R
Sampling rate: 48.0 KHz
Compression mode: Lossy
Stream size: 82.7 MiB (5%)
Language: Russian
Encoded date: UTC 2012-11-05 22:43:01
Tagged date: UTC 2012-11-05 22:43:23
Audio #3
ID: 4
Format: AAC
Format/Info: Advanced Audio Codec
Format profile: LC
Codec ID: 40
Duration: 1h 34mn
Bit rate mode: Variable
Bit rate: 123 Kbps
Maximum bit rate: 198 Kbps
Channel(s): 2 channels
Channel positions: Front: L R
Sampling rate: 48.0 KHz
Compression mode: Lossy
Stream size: 83.2 MiB (5%)
Language: English
Encoded date: UTC 2012-11-05 22:43:01
Tagged date: UTC 2012-11-05 22:43:26
Text #1
ID: 5
Format: Timed text
Muxing mode: sbtl
Codec ID: tx3g
Duration: 1h 31mn
Bit rate mode: Variable
Bit rate: 129 bps
Stream size: 86.2 KiB (0%)
Language: Russian
Encoded date: UTC 2012-11-05 22:43:01
Tagged date: UTC 2012-11-05 22:43:26
Text #2
ID: 6
Format: Apple text
Codec ID: text
Duration: 1h 34mn
Bit rate mode: Constant
Bit rate: 1 bps
Stream size: 384 Bytes (0%)
Language: English
Encoded date: UTC 2012-11-05 22:43:26
Tagged date: UTC 2012-11-05 22:43:26
Menu
00:00:00.000: Chapter1
00:05:08.268: Chapter2
00:12:13.442: Chapter3
00:16:06.132: Chapter4
00:23:50.679: Chapter5
00:29:11.082: Chapter6
00:35:35.257: Chapter7
00:42:52.985: Chapter8
00:47:40.730: Chapter9
00:53:42.257: Chapter 10
00:58:22.370: Chapter 11
01:04:03.419: Chapter 12
01:10:53.829: Chapter 13
01:17:58.878: Chapter 14
01:24:14.628: Chapter 15
01:28:29.966: Chapter 16
x264 лог
Код:
x264 [info]: frame I:822 Avg QP:14.29size:105518PSNR Mean Y:48.41 U:50.07 V:50.69 Avg:48.96 Global:48.23
x264 [info]: frame P:30218 Avg QP:17.73size: 29304PSNR Mean Y:45.96 U:47.71 V:48.57 Avg:46.55 Global:45.63
x264 [info]: frame B:104584 Avg QP:20.73size:5579PSNR Mean Y:44.81 U:46.87 V:48.01 Avg:45.49 Global:44.54
x264 [info]: consecutive B-frames:1.0%1.6%2.3% 52.4% 12.1% 19.0% 11.7%
x264 [info]: mb II16..4: 14.8% 61.7% 23.5%
x264 [info]: mb PI16..4:0.6%3.8%1.0%P16..4: 36.8% 27.7% 19.0%0.0%0.0%skip:11.2%
x264 [info]: mb BI16..4:0.0%0.2%0.1%B16..8: 42.5%8.2%2.5%direct: 2.4%skip:44.1%L0:43.1% L1:49.0% BI: 7.9%
x264 [info]: 8x8 transform intra:67.5% inter:70.7%
x264 [info]: coded y,uvDC,uvAC intra: 86.4% 90.6% 79.5% inter: 21.7% 23.9% 8.3%
x264 [info]: i16 v,h,dc,p: 53% 10%6% 32%
x264 [info]: i8 v,h,dc,ddl,ddr,vr,hd,vl,hu: 11%7%3% 10% 15% 16% 14% 13% 11%
x264 [info]: i4 v,h,dc,ddl,ddr,vr,hd,vl,hu: 10%7%3% 10% 16% 16% 14% 13% 13%
x264 [info]: i8c dc,h,v,p: 44% 16% 21% 19%
x264 [info]: Weighted P-Frames: Y:1.4% UV:0.9%
x264 [info]: ref P L0: 46.9% 11.3% 15.9%6.7%5.6%4.4%4.0%2.5%2.6%0.1%0.0%
x264 [info]: ref B L0: 75.2% 11.1%5.5%2.8%2.1%1.8%1.0%0.4%
x264 [info]: ref B L1: 91.6%8.4%
x264 [info]: SSIM Mean Y:0.9791819 (16.816db)
x264 [info]: PSNR Mean Y:45.084 U:47.074 V:48.149 Avg:45.745 Global:44.777 kb/s:2200.13
Скриншоты



Вернуться к началу
 Профиль Отправить личное сообщение  
 
   Похожие торренты   Автор   Торрент   Размер 
В этой теме нет новых непрочитанных сообщений. Третий лишний / Ted [фэнтези, комедия, 2012] BDRip 720p, Dub [iPad] [Лицензия]

salma3

16 | 10

2.67 ГБ

В этой теме нет новых непрочитанных сообщений. Чудо-женщина / Wonder Woman [фантастика, фэнтези, боевик, 2017] BDRip-AVC, Avo [Гаврилов / Сербин]

salma3

0 | 0

3.11 ГБ

В этой теме нет новых непрочитанных сообщений. Доктор Стрэндж / Doctor Strange [фантастика, фэнтези, боевик, приключения, 2016] BDRip, Avo [Сербин]

salma3

32 | 10

1.46 ГБ

В этой теме нет новых непрочитанных сообщений. Бриджит Джонс 3 / Bridget Jones's Baby [мелодрама, комедия, 2016] BDRip 720p, Dub [iPad] [Лицензия]

salma3

45 | 15

2.4 ГБ

В этой теме нет новых непрочитанных сообщений. Сказки юга / Southland Tales [фантастика, триллер, комедия, 2006] BDRip, Avo [Сербин]

salma3

150 | 50

1.46 ГБ

В этой теме нет новых непрочитанных сообщений. Защитники [фантастика, фэнтези, боевик, приключения, 2017] BDRip 720p [iPad] [Лицензия]

salma3

368 | 63

2.08 ГБ

В этой теме нет новых непрочитанных сообщений. Впусти меня. Сага / Let Me In [ужасы, фэнтези, драма, 2010] BDRip 720p, Dub [iPad]

salma3

0 | 0

1.42 ГБ


Начать новую тему Ответить на тему  [ 1 сообщение ] 




Для Мосгорсуда, Роскомнадзора и рекламодателей:: mosgorsud-torrent[собачка]yandex.ru
cron