Торрент файл
скачать торрент магнет ссылка Добавлен: 05 янв 2013, 22:52
Размер: 1.18 ГБ
Сидеров: 1
Личеров: 3
Автор

СообщениеДобавлено: 05 янв 2013, 22:52 

Не в сети
Супермодератор
Аватара пользователя
Дата регистрации:
11 апр 2010, 18:10
Спасибо: 5995 / 7
Сообщения: 56685
id="p-25224744-1">Город грехов / Sin City

Год выпуска: 2005
Страна: США
Жанр: боевик, триллер, криминал, детектив
Продолжительность: 2:04:04
Перевод : Профессиональный (многоголосый, полное дублирование)
Режиссёр: Фрэнк Миллер, Роберт Родригес, Квентин Тарантино
В ролях:
Микки Рурк
Брюс Уиллис
Джессика Альба
Бенисио Дель Торо
Карла Гуджино
Майкл Мэдсен
Джейми Кинг
Бриттани Мерфи
Клайв Оуэн
Рутгер Хауэр
Описание: Город грехов - это адская бездна преступлений. Один из его жителей пытается найти убийцу своей подруги. Другой, фотограф, случайно становится свидетелем убийства полицейского и старается скрыть преступление. Спуститесь по глухому переулку города, и вы найдете кое-что еще. В Городе грехов полиция коррумпирована и улицы смертельно опасны…
Качество: BDRip
Формат: *.m4v
Видео кодек: H.264
аудио кодек: ААС
Разрешение: 720x320
Другие параметры видео: MPEG4 Video (H264) 1200Kbps 23.98fps
Аудио: AAC 48000Hz stereo 160kbps
Вшитая обложка: есть
Доп. теги (режиссёр, актёры и т.д.): прописаны
MediaInfo
General
Complete name : D:\Фильмы mp4\Sin City (2005) BDRip.m4v
Format : MPEG-4
Format profile : Base Media / Version 2
Codec ID : mp42
File size : 1.18 GiB
Duration : 2h 4mn
Overall bit rate : 1 364 Kbps
Movie name : Город Грехов
Performer : Фрэнк Миллер, Роберт Родригес, Квентин Тарантино
Genre : боевик, триллер, криминал, детектив
Encoded date : 2005
Tagged date : UTC 2011-01-31 19:53:42
Writing application : HandBrake 0.9.5 2011010300
Cover : Yes
iTunEXTC : mpaa|R|400|
iTunMOVI : <?xml version="1.0" encoding="UTF-8"?> / <!DOCTYPE plist PUBLIC "-/Apple/DTD PLIST 1.0/EN" "http://www.apple.com/DTDs/PropertyList-1.0.dtd"> / <plist version="1.0"> / <dict> / <key>cast</key> / <array> / <dict> / <key>name</key> / <string>Микки Рурк</string> / </dict> / <dict> / <key>name</key> / <string>Брюс Уиллис</string> / </dict> / <dict> / <key>name</key> / <string>Джессика Альба</string> / </dict> / <dict> / <key>name</key> / <string>Бенисио Дель Торо</string> / </dict> / <dict> / <key>name</key> / <string>Карла Гуджино</string> / </dict> / <dict> / <key>name</key> / <string>Майкл Мэдсен</string> / </dict> / <dict> / <key>name</key> / <string>Джейми Кинг</string> / </dict> / <dict> / <key>name</key> / <string>Бриттани Мерфи</string> / </dict> / <dict> / <key>name</key> / <string>Клайв Оуэн</string> / </dict> / <dict> / <key>name</key> / <string>Рутгер Хауэр</string> / </dict> / </array> / <key>directors</key> / <array> / <dict> / <key>name</key> / <string>Фрэнк Миллер</string> / </dict> / <dict> / <key>name</key> / <string>Роберт Родригес</string> / </dict> / <dict> / <key>name</key> / <string>Квентин Тарантино</string> / </dict> / </array> / <key>producers</key> / <array> / <dict> / <key>name</key> / <string>Элизабет Авеллан</string> / </dict> / <dict> / <key>name</key> / <string>Билл Скотт</string> / </dict> / <dict> / <key>name</key> / <string>Боб Вайнштейн</string> / </dict> / </array> / </dict> / </plist>
desc : Город грехов - это адская бездна преступлений.
ldes : Город грехов - это адская бездна преступлений. Один из его жителей пытается найти убийцу своей подруги. Другой, фотограф, случайно становится свидетелем убийства полицейского и старается скрыть преступление. Спуститесь по глухому переулку города, и вы найдете кое-что еще. В Городе грехов полиция коррумпирована и улицы смертельно опасны…
stik : 9
Video
ID : 1
Format : AVC
Format/Info : Advanced Video Codec
Format profile : [email protected]
Format settings, CABAC : No
Format settings, ReFrames : 3 frames
Codec ID : avc1
Codec ID/Info : Advanced Video Coding
Duration : 2h 4mn
Bit rate mode : Variable
Bit rate : 1 200 Kbps
Width : 720 pixels
Height : 320 pixels
Display aspect ratio : 2.25:1
Frame rate mode : Variable
Frame rate : 23.976 fps
Minimum frame rate : 23.810 fps
Maximum frame rate : 24.390 fps
Color space : YUV
Chroma subsampling : 4:2:0
Bit depth : 8 bits
Scan type : Progressive
Bits/(Pixel*Frame) : 0.217
Stream size : 1.04 GiB (88%)
Writing library : x264 core 112
Encoding settings : cabac=0 / ref=3 / deblock=1:0:0 / analyse=0x1:0x131 / me=umh / subme=6 / psy=1 / psy_rd=0.00:0.00 / mixed_ref=1 / me_range=16 / chroma_me=1 / trellis=0 / 8x8dct=0 / cqm=0 / deadzone=21,11 / fast_pskip=0 / chroma_qp_offset=0 / threads=6 / sliced_threads=0 / nr=0 / decimate=1 / interlaced=0 / constrained_intra=0 / bframes=0 / weightp=0 / keyint=240 / keyint_min=23 / scenecut=40 / intra_refresh=0 / rc_lookahead=40 / rc=abr / mbtree=1 / bitrate=1200 / ratetol=1.0 / qcomp=0.60 / qpmin=3 / qpmax=51 / qpstep=4 / vbv_maxrate=1500 / vbv_bufsize=2000 / ip_ratio=1.40 / aq=1:1.00 / nal_hrd=none
Encoded date : UTC 2011-01-18 09:04:19
Tagged date : UTC 2011-01-18 10:20:42
Color primaries : BT.601-6 525, BT.1358 525, BT.1700 NTSC, SMPTE 170M
Transfer characteristics : BT.709-5, BT.1361
Matrix coefficients : BT.601-6 525, BT.1358 525, BT.1700 NTSC, SMPTE 170M
Audio
ID : 2
Format : AAC
Format/Info : Advanced Audio Codec
Format version : Version 4
Format profile : LC
Format settings, SBR : No
Codec ID : 40
Duration : 2h 4mn
Bit rate mode : Variable
Bit rate : 160 Kbps
Maximum bit rate : 338 Kbps
Channel(s) : 2 channels
Channel positions : Front: L R
Sampling rate : 48.0 KHz
Stream size : 142 MiB (12%)
Language : Russian
Encoded date : UTC 2011-01-18 09:04:19
Tagged date : UTC 2011-01-18 10:20:42

Скриншоты


MPAA: Рейтинг R - Детям до 17 лет обязательно присутствие родителей
Кинопоиск:



Вернуться к началу
 Профиль Отправить личное сообщение  
 
   Похожие торренты   Автор   Торрент   Размер 
В этой теме нет новых непрочитанных сообщений. Город Грехов / City of Sin [триллер, драма, криминал, 2017] WEB-DLRip, Mvo

salma3

778 | 280

1.37 ГБ

В этой теме нет новых непрочитанных сообщений. Город Грехов / City of Sin [триллер, драма, криминал, 2017] WEB-DL 1080p, Mvo

salma3

144 | 36

3.57 ГБ

В этой теме нет новых непрочитанных сообщений. Город насилия / Violent City / Città violenta [Триллер, драма, криминал, 1970] BDRip, Mvo

salma3

43 | 3

1.46 ГБ

В этой теме нет новых непрочитанных сообщений. Город насилия / Violent City / Città violenta [Триллер, драма, криминал, 1970] BDRip 720p, Mvo

salma3

11 | 3

4.3 ГБ

В этой теме нет новых непрочитанных сообщений. Город-бомба / Bomb City [Боевик, триллер, драма, 2017] BDRip 1080p, Mvo

salma3

31 | 10

9.56 ГБ

В этой теме нет новых непрочитанных сообщений. Зона преступности / Промышленный город / City of Industry [Боевик, триллер, 1997] BDRip 1080p, Mvo

salma3

0 | 1

10.36 ГБ

В этой теме нет новых непрочитанных сообщений. Злой город / Wicked City [01x01-02 из 10] (Джон Кассар, Джеймс М. Муро, Дж. Миллер Тобин) [2015, драма, WEB-DLRip | Newstudio]

Nickolas3435

155 | 74

1.06 ГБ


Начать новую тему Ответить на тему  [ 1 сообщение ] 




Для Мосгорсуда, Роскомнадзора и рекламодателей:: mosgorsud-torrent[собачка]yandex.ru
cron