Торрент файл
скачать торрент магнет ссылка Добавлен: 05 янв 2013, 22:52
Размер: 481.97 МБ
Сидеров: 2
Личеров: 3
Автор

СообщениеДобавлено: 05 янв 2013, 22:52 

Не в сети
Супермодератор
Аватара пользователя
Дата регистрации:
11 апр 2010, 18:10
Спасибо: 5996 / 7
Сообщения: 56684
id="p-25224744-1"> Женщина в черном

Год выпуска: 2012| Страна: Швеция, Великобритания, Канада | Жанр: ужасы, триллер| Продолжительность: 01:35:20| Перевод: Профессиональный (полное дублирование) Лицензия

Режиссер: Джеймс Уоткинс
В ролях: Дэниэл Рэдклифф, Кьяран Хайндс, Джанет МакТир, Дэвид Бурк, Шон Дули, Эмма Шори, Хэрмон Молли, Софи Стаки, Миша Хэндли, Джессика Рэйне
На дворе — конец девятнадцатого века, но, хотя люди пользуются автомобилями, железными дорогами и телеграфом, человек по-прежнему бессилен перед проявлениями сверхъестественного. Молодой лондонский юрист Артур Киппс вынужден оставить своего 4-летнего сына и отправиться в командировку в уединенную северную деревушку, чтобы составить реестр документов, оставшихся от скончавшегося хозяина поместья Ил Марш. Добравшись до места и пообщавшись с негостеприимными местными жителями, он начинает понимать, что над деревушкой нависла тень мрачной тайны. Когда же рядом со старым кладбищем ему на глаза попадается загадочная женщина, одетая в черное, это малозначительное происшествие знаменует начало череды леденящих кровь смертей в семьях обитателей деревни.


Качество: HDRip| Формат: MP4| Видео кодек: H.264| Аудио кодек: AAC| Видео: 480x200, 23.976 fps, 575 kbps, 0.25 bit/pixel| Аудио: 48 kHz, 2 ch, 128 kbps
Доп. теги (режиссёр, актёры и т.д.): прописаны

MI
Общее
Полное имя : The Woman in Black[iPod].mp4
Формат : MPEG-4
Профиль формата : Base Media
Идентификатор кодека : isom
Размер файла : 482 Мбайт
Продолжительность : 1 ч. 35 м.
Режим общего битрейта : Переменный
Общий поток : 707 Кбит/сек
Название фильма : Женщина в черном
Исполнитель : James Watkins
Жанр : Horror
Дата записи : 2012
Дата кодирования : UTC 2012-06-28 07:03:16
Дата пометки : UTC 2012-06-28 11:02:19
Правообладатель : T.O.X.A
Обложка : Yes
Примечание : by RG Mobile & R.G.
ldes : На дворе — конец девятнадцатого века, но, хотя люди пользуются автомобилями, железными дорогами и телеграфом, человек по-прежнему бессилен перед проявлениями сверхъестественного. Молодой лондонский юрист Артур Киппс вынужден оставить своего 4-летнего сына и отправиться в командировку в уединенную северную деревушку, чтобы составить реестр документов, оставшихся от скончавшегося хозяина поместья Ил Марш. Добравшись до места и пообщавшись с негостеприимными местными жителями, он начинает понимать, что над деревушкой нависла тень мрачной тайны. Когда же рядом со старым кладбищем ему на глаза попадается загадочная женщина, одетая в черное, это малозначительное происшествие знаменует начало череды леденящих кровь смертей в семьях обитателей деревни.
hdvd : 0
stik : 9
iTunEXTC : mpaa|PG-13|300|
iTunMOVI : <?xml version="1.0" encoding="UTF-8"?> / <!DOCTYPE plist PUBLIC "-/Apple/DTD PLIST 1.0/EN" "http://www.apple.com/DTDs/PropertyList-1.0.dtd"> / <plist version="1.0"> / <dict> / <key>cast</key> / <array> / <dict> / <key>name</key> / <string>Дэниэл Рэдклифф</string> / </dict> / <dict> / <key>name</key> / <string>Кьяран Хайндс</string> / </dict> / <dict> / <key>name</key> / <string>Джанет МакТир</string> / </dict> / <dict> / <key>name</key> / <string>Дэвид Бурк</string> / </dict> / <dict> / <key>name</key> / <string>Шон Дули</string> / </dict> / <dict> / <key>name</key> / <string>Эмма Шори</string> / </dict> / <dict> / <key>name</key> / <string>Хэрмон Молли</string> / </dict> / <dict> / <key>name</key> / <string>Софи Стаки</string> / </dict> / <dict> / <key>name</key> / <string>Миша Хэндли</string> / </dict> / <dict> / <key>name</key> / <string>Джессика Рэйне</string> / </dict> / </array> / <key>directors</key> / <array> / <dict> / <key>name</key> / <string>Джеймс Уоткинс</string> / </dict> / </array> / <key>producers</key> / <array> / <dict> / <key>name</key> / <string>Саймон Оукс</string> / </dict> / <dict> / <key>name</key> / <string>Брайан Оливер</string> / </dict> / <dict> / <key>name</key> / <string>Ричард Джексон</string> / </dict> / </array> / <key>screenwriters</key> / <array> / <dict> / <key>name</key> / <string>Джейн Голдман</string> / </dict> / <dict> / <key>name</key> / <string>Сьюзен Хилл</string> / </dict> / </array> / </dict> / </plist>
Видео
Идентификатор : 1
Формат : AVC
Формат/Информация : Advanced Video Codec
Профиль формата : [email protected]
Параметр CABAC формата : Нет
Параметр ReFrames формата : 6 кадров
Идентификатор кодека : avc1
Идентификатор кодека/Информация : Advanced Video Coding
Продолжительность : 1 ч. 35 м.
Битрейт : 575 Кбит/сек
Максимальный битрейт : 2794 Кбит/сек
Ширина : 480 пикселей
Высота : 200 пикселей
Соотношение сторон : 2,40:1
Режим частоты кадров : Постоянный
Частота кадров : 23,976 кадра/сек
Цветовое пространство : YUV
Субдискретизация насыщенности : 4:2:0
Битовая глубина : 8 бит
Тип развёртки : Прогрессивная
Бит/(Пиксели*Кадры) : 0.250
Размер потока : 391 Мбайт (81%)
Библиотека кодирования : x264 core 119 r2106 07efeb4
Настройки программы : cabac=0 / ref=6 / deblock=1:-1:-1 / analyse=0x1:0x111 / me=umh / subme=9 / psy=1 / psy_rd=1.00:0.00 / mixed_ref=1 / me_range=16 / chroma_me=1 / trellis=0 / 8x8dct=0 / cqm=0 / deadzone=21,11 / fast_pskip=0 / chroma_qp_offset=-2 / threads=6 / sliced_threads=0 / nr=0 / decimate=0 / interlaced=0 / bluray_compat=0 / constrained_intra=0 / bframes=0 / weightp=0 / keyint=250 / keyint_min=23 / scenecut=40 / intra_refresh=0 / rc_lookahead=60 / rc=2pass / mbtree=1 / bitrate=575 / ratetol=1.0 / qcomp=0.60 / qpmin=0 / qpmax=69 / qpstep=4 / cplxblur=20.0 / qblur=0.5 / ip_ratio=1.40 / aq=1:1.00
Дата кодирования : UTC 2012-06-28 07:03:16
Дата пометки : UTC 2012-06-28 07:03:23
Аудио
Идентификатор : 2
Формат : AAC
Формат/Информация : Advanced Audio Codec
Профиль формата : LC
Идентификатор кодека : 40
Продолжительность : 1 ч. 35 м.
Вид битрейта : Переменный
Битрейт : 127 Кбит/сек
Максимальный битрейт : 157 Кбит/сек
Каналы : 2 канала
Расположение каналов : Front: L R
Частота : 48,0 КГц
Метод сжатия : С потерями
Размер потока : 86,7 Мбайт (18%)
Дата кодирования : UTC 2012-06-28 07:03:22
Дата пометки : UTC 2012-06-28 07:03:23
Скриншоты



Вернуться к началу
 Профиль Отправить личное сообщение  
 
   Похожие торренты   Автор   Торрент   Размер 
В этой теме нет новых непрочитанных сообщений. Фатальная женщина / Смертоносная женщина / Lethal Woman / The Most Dangerous Woman Alive [Триллер, боевик, драма, криминал, 1988] VHSRip, Avo

salma3

95 | 17

706.56 МБ

В этой теме нет новых непрочитанных сообщений. Другая женщина / Another Woman [драма, 1988] HDRip, Dvo

salma3

0 | 0

1.46 ГБ

В этой теме нет новых непрочитанных сообщений. Мужчина и женщина / A Man and A Woman (Ли Юн-ги / Lee Yoon Ki) [2016г., Южная Корея, драма, мелодрама, HDRip] DVO

Alfredovich

17 | 5

1.42 ГБ

В этой теме нет новых непрочитанных сообщений. Женщина в бегах / Woman in Hiding [Драма, нуар, триллер, 1950] WEB-DL 1080p, Mvo

salma3

0 | 0

9.74 ГБ

В этой теме нет новых непрочитанных сообщений. Женщина в бегах / Woman on the Run [триллер, 2017] WEB-DLRip, Mvo

salma3

679 | 201

1.37 ГБ

В этой теме нет новых непрочитанных сообщений. Женщина в бегах / Woman on the Run [триллер, 2017] WEB-DL 720p, Mvo

salma3

296 | 85

2.68 ГБ

В этой теме нет новых непрочитанных сообщений. Невероятно усохшая женщина / The Incredible Shrinking Woman [фантастика, комедия, 1981] HDRip, Mvo

salma3

0 | 0

1.45 ГБ


Начать новую тему Ответить на тему  [ 1 сообщение ] 




Для Мосгорсуда, Роскомнадзора и рекламодателей:: mosgorsud-torrent[собачка]yandex.ru
cron