Торрент файл
скачать торрент магнет ссылка Добавлен: 05 янв 2013, 22:52
Размер: 562.15 МБ
Сидеров: 2
Личеров: 4
Автор

СообщениеДобавлено: 05 янв 2013, 22:52 

Не в сети
Супермодератор
Аватара пользователя
Дата регистрации:
11 апр 2010, 18:10
Спасибо: 5996 / 7
Сообщения: 56684
id="p-25224744-1">Трудности перевода / Lost in Translation
Год выпуска: 2003
Страна: США, Япония
Жанр: Комедия, драма, любовный роман
Продолжительность: 01:41:45
Перевод : Профессиональный (полное дублирование)
Русские субтитры: нет
Режиссёр: София Коппола
В ролях: Билл Мюррей, Скарлетт Йоханссон, Джованни Рибизи, Кэтрин Ламберт, Акико Такешита, Риюичиро Баба, Франсуа дю Буис
Описание: Токио, ночь, фешенебельный бар дорогого отеля… Здесь, спасаясь от бессонницы, встречаются двое американцев: телевизионный актер Боб Харрис и симпатичная молодая женщина Шарлотта.
Познакомившись, они пускаются вместе в путешествие по японской столице. Во время своей многочасовой прогулки Боб и Шарлотта попадают в забавные истории и неожиданные перипетии, знакомясь с местными жителями.
Жизнь восточного мира открывается американцам яркими и незнакомыми гранями, помогает обнаружить в себе веру в потрясающие человеческие возможности. А случайные встречи становятся очень нужными и важными для постижения жизни.
Доп. информация:
Кинопоиск: 7.568
Imdb: 7.9/10
Качество: HDRip
Ссылка на исходник: http://rutracker.org/forum/viewtopic.php?t=3028951
Формат: *.m4v
Видео кодек: H.264
аудио кодек: ААС
Разрешение: 480x256
Другие параметры видео: 640 Кбит/сек, 23,976 кадр/сек
Аудио: AAC 48000Hz stereo 1536Kbps
Вшитая обложка: есть
Доп. теги (режиссёр, актёры и т.д.): прописаны
MediaInfo
Общее
Полное имя : L:\iphone\видео\Lost In Translation_HDRip.m4v
Формат : MPEG-4
Профиль формата : Base Media / Version 2
Идентификатор кодека : mp42
Размер файла : 562 Мбайт
Продолжительность : 1 ч. 41 м.
Общий поток : 772 Кбит/сек
Название фильма : Трудности Перевода
Исполнитель : Lost In Translation
Жанр : Comedy, Drama, Romance
Дата кодирования : 2003-10-03
Дата пометки : UTC 2011-01-29 19:13:34
Программа кодирования : HandBrake 0.9.5 2011010300
Обложка : Yes
iTunEXTC : mpaa|R|400|
iTunMOVI : <?xml version="1.0" encoding="UTF-8"?> / <!DOCTYPE plist PUBLIC "-/Apple/DTD PLIST 1.0/EN" "http://www.apple.com/DTDs/PropertyList-1.0.dtd"> / <plist version="1.0"> / <dict> / <key>cast</key> / <array> / <dict> / <key>name</key> / <string>Билл Мюррей</string> / </dict> / <dict> / <key>name</key> / <string>Скарлетт Йоханссон</string> / </dict> / <dict> / <key>name</key> / <string>Джованни Рибизи</string> / </dict> / <dict> / <key>name</key> / <string>Кэтрин Ламберт</string> / </dict> / <dict> / <key>name</key> / <string>Акико Такешита</string> / </dict> / <dict> / <key>name</key> / <string>Риюичиро Баба</string> / </dict> / <dict> / <key>name</key> / <string>Франсуа дю Буис</string> / </dict> / </array> / <key>directors</key> / <array> / <dict> / <key>name</key> / <string>София Коппола</string> / </dict> / </array> / <key>screenwriters</key> / <array> / <dict> / <key>name</key> / <string>София Коппола</string> / </dict> / </array> / </dict> / </plist>
desc : Трогательная история романа двух одиноких американцев - телевизионного актёра и молодой женщины. Они случайно встретились в Токио, вместе провели незабываемый уикенд, Они стремились к душевному единению, но…
ldes : Токио, ночь, фешенебельный бар дорогого отеля… Здесь, спасаясь от бессонницы, встречаются двое американцев: телевизионный актер Боб Харрис и симпатичная молодая женщина Шарлотта. / Познакомившись, они пускаются вместе в путешествие по японской столице. Во время своей многочасовой прогулки Боб и Шарлотта попадают в забавные истории и неожиданные перипетии, знакомясь с местными жителями. / Жизнь восточного мира открывается американцам яркими и незнакомыми гранями, помогает обнаружить в себе веру в потрясающие человеческие возможности. А случайные встречи становятся очень нужными и важными для постижения жизни.
stik : 9
Видео
Идентификатор : 1
Формат : AVC
Формат/Информация : Advanced Video Codec
Профиль формата : [email protected]
Параметр CABAC формата : Нет
Параметр ReFrames формата : 1 кадр
Идентификатор кодека : avc1
Идентификатор кодека/Информация : Advanced Video Coding
Продолжительность : 1 ч. 41 м.
Вид битрейта : Переменный
Битрейт : 640 Кбит/сек
Ширина : 480 пикс.
Высота : 256 пикс.
Соотношение сторон : 1,875
Режим частоты кадров : Переменный
Частота кадров : 23,976 кадр/сек
Минимальная частота кадров : 11,987 кадр/сек
Максимальная частота кадров : 23,981 кадр/сек
Цветовое пространство : YUV
Подвыборка цветности : 4:2:0
Битовая глубина : 8 бит
Тип развёртки : Прогрессивная
Бит/(Пиксели*Кадры) : 0.217
Размер потока : 465 Мбайт (83%)
Библиотека кодирования : x264 core 112
Настройки программы : cabac=0 / ref=1 / deblock=1:0:0 / analyse=0x1:0x131 / me=umh / subme=6 / psy=1 / psy_rd=0.00:0.00 / mixed_ref=0 / me_range=16 / chroma_me=1 / trellis=0 / 8x8dct=0 / cqm=0 / deadzone=21,11 / fast_pskip=0 / chroma_qp_offset=0 / threads=3 / sliced_threads=0 / nr=0 / decimate=1 / interlaced=0 / constrained_intra=0 / bframes=0 / weightp=0 / keyint=240 / keyint_min=23 / scenecut=40 / intra_refresh=0 / rc_lookahead=40 / rc=2pass / mbtree=1 / bitrate=640 / ratetol=1.0 / qcomp=0.60 / qpmin=3 / qpmax=51 / qpstep=4 / cplxblur=20.0 / qblur=0.5 / vbv_maxrate=1500 / vbv_bufsize=2000 / ip_ratio=1.40 / aq=1:1.00 / nal_hrd=none
Дата кодирования : UTC 2011-01-29 16:16:35
Дата пометки : UTC 2011-01-29 16:53:10
Основные цвета : BT.601-6 525, BT.1358 525, BT.1700 NTSC, SMPTE 170M
Характеристики трансфера : BT.709-5, BT.1361
Коэффициенты матрицы : BT.601-6 525, BT.1358 525, BT.1700 NTSC, SMPTE 170M
Аудио
Идентификатор : 2
Формат : AAC
Формат/Информация : Advanced Audio Codec
Профиль формата : LC
Идентификатор кодека : 40
Продолжительность : 1 ч. 41 м.
Вид битрейта : Переменный
Битрейт : 128 Кбит/сек
Максимальный битрейт : 163 Кбит/сек
Канал(ы) : 2 канала(ов)
Расположение каналов : Front: L R
Частота : 48,0 КГц
Метод сжатия : С потерями
Размер потока : 93,1 Мбайт (17%)
Дата кодирования : UTC 2011-01-29 16:16:35
Дата пометки : UTC 2011-01-29 16:53:10
Скриншоты






Вернуться к началу
 Профиль Отправить личное сообщение  
 
   Похожие торренты   Автор   Торрент   Размер 
В этой теме нет новых непрочитанных сообщений. Трудности перевода / Lost in Translation [Драма, мелодрама, комедия, 2003] BDRip 1080p, Dub

salma3

0 | 0

10.86 ГБ

В этой теме нет новых непрочитанных сообщений. Трудности перевода / Lost in Translation [драма, мелодрама, комедия, 2003] BDRip 720p, Dub

salma3

3 | 8

3.47 ГБ

В этой теме нет новых непрочитанных сообщений. София / София Палеолог [01-04 из 8] (Мелодрама, исторический, 2016) HDTVRip-AVC от ExKinoRay

marya111

138 | 76

2.91 ГБ

В этой теме нет новых непрочитанных сообщений. София / София Палеолог [01-06 из 8] ( Мелодрама, исторический, 2016) HDTVRip-AVC от ExKinoRay

marya111

435 | 288

4.37 ГБ

В этой теме нет новых непрочитанных сообщений. София (София Палеолог) / Sofia (Серии 1-8 из 8) (Алексей Андрианов) [2016, Мелодрама, исторический , HDTVRipi 1080p] [DD5.1]

Враг Нароода

6 | 9

24.28 ГБ

В этой теме нет новых непрочитанных сообщений. София / София Палеолог [01-08 из 08] (2016) WEB-DLRip от GeneralFilm

marya111

1160 | 339

3.47 ГБ

В этой теме нет новых непрочитанных сообщений. София / София Палеолог [01-08 из 08] (2016) HDTVRip-AVC от ExKinoRay

marya111

572 | 147

5.73 ГБ


Начать новую тему Ответить на тему  [ 1 сообщение ] 




Для Мосгорсуда, Роскомнадзора и рекламодателей:: mosgorsud-torrent[собачка]yandex.ru
cron