Торрент файл
скачать торрент магнет ссылка Добавлен: 05 янв 2013, 22:50
Размер: 4.45 ГБ
Сидеров: 2
Личеров: 5
Автор

СообщениеДобавлено: 05 янв 2013, 22:50 

Не в сети
Супермодератор
Аватара пользователя
Дата регистрации:
11 апр 2010, 18:10
Спасибо: 5995 / 7
Сообщения: 56685
id="p-25224744-1">Омeн: ТрилoгияOmеn: Trilоgy


Омен / The Omen
Омен
The Omen
Общая информация
Год выпуска: 1976
Страна: США, Великобритания
Жанр: ужасы, детектив
Продолжительность: 01:51:02



Создатели и актеры
Режиссеры: Ричард Доннер / Richard Donner
В ролях: Грегори Пек, Ли Ремик, Дэвид Уорнер, Билли Уайтлоу, Харви Стефенс, Патрик Тротон, Мартин Бенсон, Роберт Ритти
Сценарий: Дэвид Зельцер
Продюссеры: Харви Бернхард, Мейс Нойфелд, Чарльз Орм



Описание
Он был рожден в 6 часов 6-го дня 6-го месяца. Как предсказано в Книге Откровений, настанет Конец света, последнее противостояние сил добра и зла, и началом его будет рождение сына Сатаны в облике человеческом..
У жены американского дипломата Роберта Торна рождается мертвый ребенок, и ее муж неспособный сообщить ей эту трагическую новость, усыновляет младенца с непонятным родимым пятном в виде трех шестерок — числа зверя. Подробности рождения ребенка остаются в секрете, но со временем становится ясно, что это необычный ребенок.



Технические параметры
Исходник: Blu Rey
Формат: MP4 (контейнер m4v)
Перевод: Русский (многоголосый, закадровый)
Субтитры: Русские, Английские
iTunes Meta Tags
Код:
Код:
Media Type: Movie HD 720p
Sort Name: The Omen
XID: Apple:vendor_id:1976-11841
Content ID: 11841
ScreenWriters: Дэвид Зельцер
Producers: Харви Бернхард, Мейс Нойфелд, Чарльз Орм
Director: Ричард Доннер
Cast: Грегори Пек, Ли Ремик, Дэвид Уорнер, Билли Уайтлоу, Харви Стивенс, Патрик Тротон, Мартин Бенсон, Лео МакКерн, Шила Рейнор, Роберт МакЛауд
Rating: R
Long Description: Он был рожден в 6 часов 6-го дня 6-го месяца. Как предсказано в Книге Откровений, настанет Конец света, последнее противостояние сил добра и зла, и началом его будет рождение сына Сатаны в облике человеческом..
У жены американского дипломата Роберта Торна рождается мертвый ребенок, и ее муж неспособный сообщить ей эту трагическую новость, усыновляет младенца с непонятным родимым пятном в виде трех шестерок — числа зверя. Подробности рождения ребенка остаются в секрете, но со временем становится ясно, что это необычный ребенок.
Description: Он был рожден в 6 часов 6-го дня 6-го месяца. Как предсказано в Книге Откровений, настанет Конец света, последнее противостояние сил добра и зла, и началом его будет рождение сына Сатаны в облике человеческом..
Release Date: 1976-06-25T07:00:00Z
Genre: Horror
Artist: Richard Donner
Name: The Omen

Видео: H.264, [email protected] (2,35:1), 23.976 fps, ~1700 kbps, анаморф
Аудио 1: Русский (AAC Stereo) MVO
Аудио 2: Английский (AAC Stereo)
Скриншоты SD
Media Info
Код:
Код:
Общее
Полное имя                               : D:\Media\ATV\Omen\Omen I\Omen I.m4v
Формат                                   : MPEG-4
Профиль формата                          : Base Media / Version 2
Идентификатор кодека                     : mp42
Размер файла                             : 1,53 Гбайт
Продолжительность                        : 1 ч. 51 м.
Режим общего битрейта                    : Переменный
Общий поток                              : 1966 Кбит/сек
Название фильма                          : The Omen
Исполнитель                              : Richard Donner
Жанр                                     : Horror
Дата записи                              : UTC 1976-06-25 07:00:00
Дата кодирования                         : UTC 2012-10-14 16:50:03
Дата пометки                             : UTC 2012-10-16 15:31:19
Обложка                                  : Yes
sonm                                     : The Omen
desc                                     : Он был рожден в 6 часов 6-го дня 6-го месяца. Как предсказано в Книге Откровений, настанет Конец света, последнее противостояние сил добра и зла, и началом его будет рождение сына Сатаны в облике человеческом..
ldes                                     : Он был рожден в 6 часов 6-го дня 6-го месяца. Как предсказано в Книге Откровений, настанет Конец света, последнее противостояние сил добра и зла, и началом его будет рождение сына Сатаны в облике человеческом..  / У жены американского дипломата Роберта Торна рождается мертвый ребенок, и ее муж неспособный сообщить ей эту трагическую новость, усыновляет младенца с непонятным родимым пятном в виде трех шестерок — числа зверя. Подробности рождения ребенка остаются в секрете, но со временем становится ясно, что это необычный ребенок.
stik                                     : 9
rtng                                     : 0
cnID                                     : 11841
xid                                      : Apple:vendor_id:1976-11841
iTunEXTC                                 : mpaa|R|400|
iTunMOVI                                 : <?xml version="1.0" encoding="UTF-8"?> / <!DOCTYPE plist PUBLIC "-/Apple/DTD PLIST 1.0/EN" "http:/www.apple.com/DTDs/PropertyList-1.0.dtd"> / <plist version="1.0"> / <dict> /  <key>cast</key> /  <array> /   <dict> /    <key>name</key> /    <string>Грегори Пек</string> /   </dict> /   <dict> /    <key>name</key> /    <string>Ли Ремик</string> /   </dict> /   <dict> /    <key>name</key> /    <string>Дэвид Уорнер</string> /   </dict> /   <dict> /    <key>name</key> /    <string>Билли Уайтлоу</string> /   </dict> /   <dict> /    <key>name</key> /    <string>Харви Стивенс</string> /   </dict> /   <dict> /    <key>name</key> /    <string>Патрик Тротон</string> /   </dict> /   <dict> /    <key>name</key> /    <string>Мартин Бенсон</string> /   </dict> /   <dict> /    <key>name</key> /    <string>Лео МакКерн</string> /   </dict> /   <dict> /    <key>name</key> /    <string>Шила Рейнор</string> /   </dict> /   <dict> /    <key>name</key> /    <string>Роберт МакЛауд</string> /   </dict> /  </array> /  <key>directors</key> /  <array> /   <dict> /    <key>name</key> /    <string>Ричард Доннер</string> /   </dict> /  </array> /  <key>producers</key> /  <array> /   <dict> /    <key>name</key> /    <string>Харви Бернхард</string> /   </dict> /   <dict> /    <key>name</key> /    <string>Мейс Нойфелд</string> /   </dict> /   <dict> /    <key>name</key> /    <string>Чарльз Орм</string> /   </dict> /  </array> /  <key>screenwriters</key> /  <array> /   <dict> /    <key>name</key> /    <string>Дэвид Зельцер</string> /   </dict> /  </array> /  <key>studio</key> /  <string>Twentieth Century-Fox</string> / </dict> / </plist>
Видео
Идентификатор                            : 1
Формат                                   : AVC
Формат/Информация                        : Advanced Video Codec
Профиль формата                          : [email protected]
Параметр CABAC формата                   : Нет
Параметр ReFrames формата                : 2 кадра
Идентификатор кодека                     : avc1
Идентификатор кодека/Информация          : Advanced Video Coding
Продолжительность                        : 1 ч. 51 м.
Вид битрейта                             : Переменный
Битрейт                                  : 1700 Кбит/сек
Ширина                                   : 640 пикселей
Высота                                   : 360 пикселей
Соотношение сторон                       : 2,35:1
Соотношение сторон в оригинале           : 2,35:1
Режим частоты кадров                     : Переменный
Частота кадров                           : 23,976 кадра/сек
Минимальная частота кадров               : 23,974 кадра/сек
Максимальная частота кадров              : 23,981 кадра/сек
Цветовое пространство                    : YUV
Субдискретизация насыщенности            : 4:2:0
Битовая глубина                          : 8 бит
Тип развёртки                            : Прогрессивная
Бит/(Пиксели*Кадры)                      : 0.308
Размер потока                            : 1,32 Гбайт (86%)
Библиотека кодирования                   : x264 core 120
Настройки программы                      : cabac=0 / ref=2 / deblock=1:-3:-3 / analyse=0x1:0x131 / me=umh / subme=6 / psy=1 / psy_rd=0.00:0.00 / mixed_ref=1 / me_range=24 / chroma_me=1 / trellis=0 / 8x8dct=0 / cqm=0 / deadzone=21,11 / fast_pskip=0 / chroma_qp_offset=0 / threads=12 / sliced_threads=0 / nr=0 / decimate=1 / interlaced=0 / bluray_compat=0 / constrained_intra=0 / bframes=0 / weightp=0 / keyint=240 / keyint_min=24 / scenecut=40 / intra_refresh=0 / rc_lookahead=40 / rc=2pass / mbtree=1 / bitrate=1700 / ratetol=1.0 / qcomp=0.60 / qpmin=3 / qpmax=69 / qpstep=4 / cplxblur=20.0 / qblur=0.5 / ip_ratio=1.40 / aq=1:1.00
Язык                                     : English
Дата кодирования                         : UTC 2012-10-14 16:50:03
Дата пометки                             : UTC 2012-10-14 17:37:02
Основные цвета                           : BT.709-5, BT.1361, IEC 61966-2-4, SMPTE RP177
Характеристики трансфера                 : BT.709-5, BT.1361
Коэффициенты матрицы                     : BT.709-5, BT.1361, IEC 61966-2-4 709, SMPTE RP177
Аудио #1
Идентификатор                            : 2
Формат                                   : AAC
Формат/Информация                        : Advanced Audio Codec
Профиль формата                          : LC
Идентификатор кодека                     : 40
Продолжительность                        : 1 ч. 51 м.
Вид битрейта                             : Переменный
Битрейт                                  : 132 Кбит/сек
Максимальный битрейт                     : 214 Кбит/сек
Каналы                                   : 2 канала
Расположение каналов                     : Front: L R
Частота                                  : 48,0 КГц
Метод сжатия                             : С потерями
Размер потока                            : 104 Мбайт (7%)
Язык                                     : Russian
Дата кодирования                         : UTC 2012-10-16 15:27:52
Дата пометки                             : UTC 2012-10-16 15:28:00
Аудио #2
Идентификатор                            : 3
Формат                                   : AAC
Формат/Информация                        : Advanced Audio Codec
Профиль формата                          : LC
Идентификатор кодека                     : 40
Продолжительность                        : 1 ч. 51 м.
Вид битрейта                             : Переменный
Битрейт                                  : 132 Кбит/сек
Максимальный битрейт                     : 215 Кбит/сек
Каналы                                   : 2 канала
Расположение каналов                     : Front: L R
Частота                                  : 48,0 КГц
Метод сжатия                             : С потерями
Размер потока                            : 105 Мбайт (7%)
Язык                                     : English
Дата кодирования                         : UTC 2012-10-16 15:27:52
Дата пометки                             : UTC 2012-10-16 15:28:08
Текст #1
Идентификатор                            : 4
Формат                                   : Timed text
Режим смешивания                         : sbtl
Идентификатор кодека                     : tx3g
Продолжительность                        : 1 ч. 50 м.
Вид битрейта                             : Переменный
Битрейт                                  : 49 бит/сек
Размер потока                            : 39,6 Кбайт (0%)
Язык                                     : Russian
Дата кодирования                         : UTC 2012-10-16 15:27:52
Дата пометки                             : UTC 2012-10-16 15:28:08
Текст #2
Идентификатор                            : 5
Формат                                   : Timed text
Режим смешивания                         : sbtl
Идентификатор кодека                     : tx3g
Продолжительность                        : 1 ч. 48 м.
Вид битрейта                             : Переменный
Битрейт                                  : 35 бит/сек
Размер потока                            : 27,5 Кбайт (0%)
Язык                                     : English
Дата кодирования                         : UTC 2012-10-16 15:27:52
Дата пометки                             : UTC 2012-10-16 15:28:08
Текст #3
Идентификатор                            : 6
Формат                                   : Apple text
Идентификатор кодека                     : text
Продолжительность                        : 1 ч. 51 м.
Вид битрейта                             : Переменный
Битрейт                                  : 1 бит/сек
Размер потока                            : 879 байт (0%)
Дата кодирования                         : UTC 2012-10-16 15:29:38
Дата пометки                             : UTC 2012-10-16 15:29:38
Меню
00:00:00.000                             : Chapter 1
00:01:24.501                             : Chapter 2
00:05:02.719                             : Chapter 3
00:05:39.213                             : Chapter 4
00:07:03.381                             : Chapter 5
00:10:50.232                             : Chapter 6
00:12:31.000                             : Chapter 7
00:15:44.109                             : Chapter 8
00:20:16.590                             : Chapter 9
00:24:01.022                             : Chapter 10
00:27:17.427                             : Chapter 11
00:29:11.124                             : Chapter 12
00:31:06.990                             : Chapter 13
00:34:43.039                             : Chapter 14
00:36:20.678                             : Chapter 15
00:38:54.957                             : Chapter 16
00:41:41.999                             : Chapter 17
00:44:48.936                             : Chapter 18
00:48:00.502                             : Chapter 19
00:49:27.172                             : Chapter 20
00:56:38.269                             : Chapter 21
01:02:21.988                             : Chapter 22
01:03:53.496                             : Chapter 23
01:06:53.384                             : Chapter 24
01:08:27.019                             : Chapter 25
01:14:05.023                             : Chapter 26
01:22:21.478                             : Chapter 27
01:26:00.864                             : Chapter 28
01:28:12.120                             : Chapter 29
01:32:47.562                             : Chapter 30
01:35:07.284                             : Chapter 31
01:41:10.481                             : Chapter 32
01:43:54.228                             : Chapter 33
01:45:38.957                             : Chapter 34
01:46:43.647                             : Chapter 35
01:48:59.533                             : Chapter 36
01:51:02.364                             : Chapter 37

x264 Log
Код:
Код:
x264 [info]: frame I:3240  Avg QP:14.63  size: 25604  PSNR Mean Y:48.60 U:48.79 V:50.84 Avg:48.84 Global:47.90
x264 [info]: frame P:156502 Avg QP:16.91  size:  8516  PSNR Mean Y:45.73 U:48.11 V:49.84 Avg:46.31 Global:45.65
x264 [info]: mb I  I16..4: 46.8%  0.0% 53.2%
x264 [info]: mb P  I16..4:  5.1%  0.0%  5.0%  P16..4: 49.2% 30.3%  2.1%  0.0%  0.3%    skip: 7.9%
x264 [info]: coded y,uvDC,uvAC intra: 70.5% 75.3% 54.8% inter: 35.7% 28.4% 3.1%
x264 [info]: i16 v,h,dc,p: 35% 13% 31% 22%
x264 [info]: i4 v,h,dc,ddl,ddr,vr,hd,vl,hu: 29% 13% 21%  6%  7%  8%  6%  6%  5%
x264 [info]: i8c dc,h,v,p: 55% 14% 23%  7%
x264 [info]: ref P L0: 68.4% 31.6%
x264 [info]: SSIM Mean Y:0.9826933 (17.618db)
x264 [info]: PSNR Mean Y:45.786 U:48.121 V:49.859 Avg:46.361 Global:45.688 kb/s:1699.86

Омен II: Дэмиен / Damien: Omen II
Омен II: Дэмиен
Omen II: Damien:
Общая информация
Год выпуска: 1978
Страна: США
Жанр: ужасы, триллер, драма
Продолжительность: 01:46:51



Создатели и актеры
Режиссеры: Дон Тейлор, Майк Ходжис
В ролях: Уильям Холден, Ли Грант, Джонатан Скот-Тэйлор, Роберт Фоксуорт, Николас Прайор, Лью Эйрс, Сильвия Сидни, Лэнс Хенриксен, Элизабет Шеперд, Лукас Донат
Сценарий: Харви Бернхард, Майк Ходжис
Продюссеры: Харви Бернхард, Джозеф Ленци, Мейс Нойфелд



Описание
Семь лет прошло с того дня, как Дэмиен чудом избежал смерти от руки своего отца. Теперь ему 13, и он живет вместе со своим дядей Ричардом Торном, тетей и двоюродным братом Марком. Пока юный Антихрист познает свою чудовищную силу и как ею пользоваться, за его безопасностью следят множество служителей Дьявола, жестоко уничтожая всех неугодных.


Технические параметры
Исходник: Blu Rey
Формат: MP4 (контейнер m4v)
Перевод: Русский (многоголосый, закадровый)
Субтитры: Русские, Английские
iTunes Meta Tags
Код:
Код:
Media Type: Movie HD 720p
Sort Name: Omen II
XID: Apple:vendor_id:1978-2303
Content ID: 2303
ScreenWriters: Харви Бернхард, Майк Ходжис
Producers: Харви Бернхард, Джозеф Ленци, Мейс Нойфелд
Director: Дон Тейлор, Майк Ходжис
Cast: Уильям Холден, Ли Грант, Джонатан Скотт-Тейлор, Роберт Фоксуорт, Николас Прайор, Лью Эйрз, Сильвия Сидни, Лэнс Хенриксен, Элизабет Шепард, Лукас Донат
Rating: R
Long Description: Семь лет прошло с того дня, как Дэмиен чудом избежал смерти от руки своего отца. Теперь ему 13, и он живет вместе со своим дядей Ричардом Торном, тетей и двоюродным братом Марком. Пока юный Антихрист познает свою чудовищную силу и как ею пользоваться, за его безопасностью следят множество служителей Дьявола, жестоко уничтожая всех неугодных.
Description: Семь лет прошло с того дня, как Дэмиен чудом избежал смерти от руки своего отца. Теперь ему 13, и он живет вместе со своим дядей Ричардом Торном, тетей и двоюродным братом Марком...
Release Date: 1978-06-05T07:00:00Z
Genre: Horror
Artist: Don Taylor, Mike Hodges
Name: Damien: Omen II

Видео: H.264, [email protected] (2,35:1), 23.976 fps, ~1600 kbps, анаморф
Аудио 1: Русский (AAC Stereo) MVO
Аудио 2: Английский (AAC Stereo)
Скриншоты SD
Media Info
Код:
Код:
Общее
Полное имя                               : D:\Media\ATV\Omen\Omen II\Omen II.m4v
Формат                                   : MPEG-4
Профиль формата                          : Base Media / Version 2
Идентификатор кодека                     : mp42
Размер файла                             : 1,40 Гбайт
Продолжительность                        : 1 ч. 46 м.
Режим общего битрейта                    : Переменный
Общий поток                              : 1871 Кбит/сек
Название фильма                          : Damien: Omen II
Исполнитель                              : Don Taylor, Mike Hodges
Жанр                                     : Horror
Дата записи                              : UTC 1978-06-05 07:00:00
Дата кодирования                         : UTC 2012-10-15 18:11:07
Дата пометки                             : UTC 2012-10-17 17:05:01
Обложка                                  : Yes
sonm                                     : Omen II
desc                                     : Семь лет прошло с того дня, как Дэмиен чудом избежал смерти от руки своего отца. Теперь ему 13, и он живет вместе со своим дядей Ричардом Торном, тетей и двоюродным братом Марком...
ldes                                     : Семь лет прошло с того дня, как Дэмиен чудом избежал смерти от руки своего отца. Теперь ему 13, и он живет вместе со своим дядей Ричардом Торном, тетей и двоюродным братом Марком. Пока юный Антихрист познает свою чудовищную силу и как ею пользоваться, за его безопасностью следят множество служителей Дьявола, жестоко уничтожая всех неугодных.
stik                                     : 9
rtng                                     : 0
cnID                                     : 2303
xid                                      : Apple:vendor_id:1978-2303
iTunEXTC                                 : mpaa|R|400|
iTunMOVI                                 : <?xml version="1.0" encoding="UTF-8"?> / <!DOCTYPE plist PUBLIC "-/Apple/DTD PLIST 1.0/EN" "http:/www.apple.com/DTDs/PropertyList-1.0.dtd"> / <plist version="1.0"> / <dict> /  <key>cast</key> /  <array> /   <dict> /    <key>name</key> /    <string>Уильям Холден</string> /   </dict> /   <dict> /    <key>name</key> /    <string>Ли Грант</string> /   </dict> /   <dict> /    <key>name</key> /    <string>Джонатан Скотт-Тейлор</string> /   </dict> /   <dict> /    <key>name</key> /    <string>Роберт Фоксуорт</string> /   </dict> /   <dict> /    <key>name</key> /    <string>Николас Прайор</string> /   </dict> /   <dict> /    <key>name</key> /    <string>Лью Эйрз</string> /   </dict> /   <dict> /    <key>name</key> /    <string>Сильвия Сидни</string> /   </dict> /   <dict> /    <key>name</key> /    <string>Лэнс Хенриксен</string> /   </dict> /   <dict> /    <key>name</key> /    <string>Элизабет Шепард</string> /   </dict> /   <dict> /    <key>name</key> /    <string>Лукас Донат</string> /   </dict> /  </array> /  <key>directors</key> /  <array> /   <dict> /    <key>name</key> /    <string>Дон Тейлор</string> /   </dict> /   <dict> /    <key>name</key> /    <string>Майк Ходжис</string> /   </dict> /  </array> /  <key>producers</key> /  <array> /   <dict> /    <key>name</key> /    <string>Харви Бернхард</string> /   </dict> /   <dict> /    <key>name</key> /    <string>Джозеф Ленци</string> /   </dict> /   <dict> /    <key>name</key> /    <string>Мейс Нойфелд</string> /   </dict> /  </array> /  <key>screenwriters</key> /  <array> /   <dict> /    <key>name</key> /    <string>Харви Бернхард</string> /   </dict> /   <dict> /    <key>name</key> /    <string>Майк Ходжис</string> /   </dict> /  </array> /  <key>studio</key> /  <string>20th Century Fox</string> / </dict> / </plist>
Видео
Идентификатор                            : 1
Формат                                   : AVC
Формат/Информация                        : Advanced Video Codec
Профиль формата                          : [email protected]
Параметр CABAC формата                   : Нет
Параметр ReFrames формата                : 2 кадра
Идентификатор кодека                     : avc1
Идентификатор кодека/Информация          : Advanced Video Coding
Продолжительность                        : 1 ч. 46 м.
Вид битрейта                             : Переменный
Битрейт                                  : 1600 Кбит/сек
Ширина                                   : 640 пикселей
Высота                                   : 360 пикселей
Соотношение сторон                       : 2,35:1
Соотношение сторон в оригинале           : 2,35:1
Режим частоты кадров                     : Переменный
Частота кадров                           : 23,976 кадра/сек
Минимальная частота кадров               : 23,974 кадра/сек
Максимальная частота кадров              : 23,981 кадра/сек
Цветовое пространство                    : YUV
Субдискретизация насыщенности            : 4:2:0
Битовая глубина                          : 8 бит
Тип развёртки                            : Прогрессивная
Бит/(Пиксели*Кадры)                      : 0.290
Размер потока                            : 1,19 Гбайт (86%)
Библиотека кодирования                   : x264 core 120
Настройки программы                      : cabac=0 / ref=2 / deblock=1:-3:-3 / analyse=0x1:0x131 / me=umh / subme=6 / psy=1 / psy_rd=0.00:0.00 / mixed_ref=1 / me_range=24 / chroma_me=1 / trellis=0 / 8x8dct=0 / cqm=0 / deadzone=21,11 / fast_pskip=0 / chroma_qp_offset=0 / threads=12 / sliced_threads=0 / nr=0 / decimate=1 / interlaced=0 / bluray_compat=0 / constrained_intra=0 / bframes=0 / weightp=0 / keyint=240 / keyint_min=24 / scenecut=40 / intra_refresh=0 / rc_lookahead=40 / rc=2pass / mbtree=1 / bitrate=1600 / ratetol=1.0 / qcomp=0.60 / qpmin=3 / qpmax=69 / qpstep=4 / cplxblur=20.0 / qblur=0.5 / ip_ratio=1.40 / aq=1:1.00
Язык                                     : English
Дата кодирования                         : UTC 2012-10-15 18:11:07
Дата пометки                             : UTC 2012-10-15 18:57:48
Основные цвета                           : BT.709-5, BT.1361, IEC 61966-2-4, SMPTE RP177
Характеристики трансфера                 : BT.709-5, BT.1361
Коэффициенты матрицы                     : BT.709-5, BT.1361, IEC 61966-2-4 709, SMPTE RP177
Аудио #1
Идентификатор                            : 2
Формат                                   : AAC
Формат/Информация                        : Advanced Audio Codec
Профиль формата                          : LC
Идентификатор кодека                     : 40
Продолжительность                        : 1 ч. 46 м.
Вид битрейта                             : Переменный
Битрейт                                  : 132 Кбит/сек
Максимальный битрейт                     : 185 Кбит/сек
Каналы                                   : 2 канала
Расположение каналов                     : Front: L R
Частота                                  : 48,0 КГц
Метод сжатия                             : С потерями
Размер потока                            : 101 Мбайт (7%)
Язык                                     : Russian
Дата кодирования                         : UTC 2012-10-17 17:02:27
Дата пометки                             : UTC 2012-10-17 17:02:59
Аудио #2
Идентификатор                            : 3
Формат                                   : AAC
Формат/Информация                        : Advanced Audio Codec
Профиль формата                          : LC
Идентификатор кодека                     : 40
Продолжительность                        : 1 ч. 46 м.
Вид битрейта                             : Переменный
Битрейт                                  : 132 Кбит/сек
Максимальный битрейт                     : 213 Кбит/сек
Каналы                                   : 2 канала
Расположение каналов                     : Front: L R
Частота                                  : 48,0 КГц
Метод сжатия                             : С потерями
Размер потока                            : 101 Мбайт (7%)
Язык                                     : English
Дата кодирования                         : UTC 2012-10-17 17:02:27
Дата пометки                             : UTC 2012-10-17 17:03:34
Текст #1
Идентификатор                            : 4
Формат                                   : Timed text
Режим смешивания                         : sbtl
Идентификатор кодека                     : tx3g
Продолжительность                        : 1 ч. 46 м.
Вид битрейта                             : Переменный
Битрейт                                  : 68 бит/сек
Размер потока                            : 53,3 Кбайт (0%)
Язык                                     : Russian
Дата кодирования                         : UTC 2012-10-17 17:02:27
Дата пометки                             : UTC 2012-10-17 17:03:34
Текст #2
Идентификатор                            : 5
Формат                                   : Timed text
Режим смешивания                         : sbtl
Идентификатор кодека                     : tx3g
Продолжительность                        : 1 ч. 46 м.
Вид битрейта                             : Переменный
Битрейт                                  : 58 бит/сек
Размер потока                            : 45,1 Кбайт (0%)
Язык                                     : English
Дата кодирования                         : UTC 2012-10-17 17:02:27
Дата пометки                             : UTC 2012-10-17 17:03:34
Текст #3
Идентификатор                            : 6
Формат                                   : Apple text
Идентификатор кодека                     : text
Продолжительность                        : 1 ч. 46 м.
Вид битрейта                             : Переменный
Битрейт                                  : 1 бит/сек
Размер потока                            : 495 байт (0%)
Дата кодирования                         : UTC 2012-10-17 17:05:01
Дата пометки                             : UTC 2012-10-17 17:05:01
Меню
00:00:00.000                             : Chapter 1
00:02:04.499                             : Chapter 2
00:04:46.035                             : Chapter 3
00:09:26.566                             : Chapter 4
00:13:16.128                             : Chapter 5
00:19:16.530                             : Chapter 6
00:22:20.088                             : Chapter 7
00:26:43.893                             : Chapter 8
00:30:56.896                             : Chapter 9
00:39:25.988                             : Chapter 10
00:46:14.938                             : Chapter 11
00:49:39.935                             : Chapter 12
00:51:33.465                             : Chapter 13
01:00:11.399                             : Chapter 14
01:07:53.277                             : Chapter 15
01:14:07.484                             : Chapter 16
01:23:04.104                             : Chapter 17
01:31:15.052                             : Chapter 18
01:39:07.149                             : Chapter 19
01:44:14.623                             : Chapter 20
01:46:51.488                             : Chapter 21

x264 Log
Код:
Код:
x264 [info]: frame I:2253  Avg QP:16.20  size: 27706  PSNR Mean Y:47.20 U:48.90 V:50.07 Avg:47.73 Global:47.36
x264 [info]: frame P:151475 Avg QP:18.33  size:  8052  PSNR Mean Y:44.39 U:47.24 V:48.72 Avg:45.08 Global:44.75
x264 [info]: mb I  I16..4: 33.1%  0.0% 66.9%
x264 [info]: mb P  I16..4:  3.8%  0.0%  5.1%  P16..4: 51.5% 29.2%  2.0%  0.0%  0.7%    skip: 7.7%
x264 [info]: coded y,uvDC,uvAC intra: 74.1% 69.2% 39.5% inter: 38.1% 25.3% 2.9%
x264 [info]: i16 v,h,dc,p: 33% 12% 29% 25%
x264 [info]: i4 v,h,dc,ddl,ddr,vr,hd,vl,hu: 32% 14% 18%  6%  7%  8%  6%  6%  5%
x264 [info]: i8c dc,h,v,p: 50% 15% 28%  7%
x264 [info]: ref P L0: 67.4% 32.6%
x264 [info]: SSIM Mean Y:0.9808320 (17.174db)
x264 [info]: PSNR Mean Y:44.428 U:47.266 V:48.742 Avg:45.120 Global:44.778 kb/s:1599.75

Омен III: Последний конфликт / Omen III: The Final Conflict
Омен III: Последний конфликт
Omen III: The Final Conflict
Общая информация
Год выпуска: 1981
Страна: США, Великобритания
Жанр: ужасы, триллер
Продолжительность: 01:48:20



Создатели и актеры
Режиссеры: Грэхэм Бэйкер
В ролях: Сэм Нилл, Россано Брацци, Дон Гордон, Лиза Хэрроу, Барнеби Холм, Мэйсон Адамс, Роберт Арден, Марк Бойл
Сценарий: Эндрю Биркин, Дэвид Зельцер
Продюссеры: Харви Бернхард, Эндрю Биркин, Ричард Доннер



Описание
Дэмиену Торну теперь 32. Стремясь к власти над всем миром он предан только себе и своему родному отцу — Сатане. Чтобы достичь своей цели, он убивает всех на своем пути — будь то друг, враг, верный слуга или любовница.
Темным силам противостоит лишь поклявшийся уничтожить дьявольское отродье старый монах с семью святыми кинжалами, выкованными специально для этого дела. Но хватит ли у него сил для осуществления своего плана или умрет как все, и мир повергнется в пучину хаоса?



Технические параметры
Исходник: Blu Rey
Формат: MP4 (контейнер m4v)
Перевод: Русский (многоголосый, закадровый)
Субтитры: Русские, Английские
iTunes Meta Tags
Код:
Код:
Media Type: Movie HD 720p
Sort Name: Omen III
XID: Apple:vendor_id:1981-22698
Content ID: 280653738
Copyright: © 1981 Twentieth Century Fox Film Corporation.
ScreenWriters: Эндрю Биркин, Дэвид Зельцер
Producers: Харви Бернхард, Эндрю Биркин, Ричард Доннер
Director: Грэм Бейкер
Cast: Сэм Нил, Россано Брацци, Дон Гордон, Лиза Хэрроу, Барнеби Холм, Мейсон Эдамс, Роберт Арден, Леуин Уиллогби, Марк Бойл, Милош Кирек
Rating: R
Long Description: Дэмиену Торну теперь 32. Стремясь к власти над всем миром он предан только себе и своему родному отцу — Сатане. Чтобы достичь своей цели, он убивает всех на своем пути — будь то друг, враг, верный слуга или любовница.
Темным силам противостоит лишь поклявшийся уничтожить дьявольское отродье старый монах с семью святыми кинжалами, выкованными специально для этого дела. Но хватит ли у него сил для осуществления своего плана или умрет как все, и мир повергнется в пучину хаоса?
Description: Дэмиену Торну теперь 32. Стремясь к власти над всем миром он предан только себе и своему родному отцу — Сатане.
Release Date: 1981-03-20T07:00:00Z
Genre: Horror
Artist: Graham Baker
Name: Omen III. The Final Conflict

Видео: H.264, [email protected] (2,35:1), 23.976 fps, ~1750 kbps, анаморф
Аудио 1: Русский (AAC Stereo) MVO
Аудио 2: Английский (AAC Stereo)
Скриншоты SD
Media Info
Код:
Код:
Общее
Полное имя                               : D:\Media\ATV\Omen\Omen III\Omen III.m4v
Формат                                   : MPEG-4
Профиль формата                          : Base Media / Version 2
Идентификатор кодека                     : mp42
Размер файла                             : 1,53 Гбайт
Продолжительность                        : 1 ч. 48 м.
Режим общего битрейта                    : Переменный
Общий поток                              : 2019 Кбит/сек
Название фильма                          : Omen III. The Final Conflict
Исполнитель                              : Graham Baker
Жанр                                     : Horror
Дата записи                              : UTC 1981-03-20 07:00:00
Дата кодирования                         : UTC 2012-10-17 16:20:59
Дата пометки                             : UTC 2012-10-18 17:01:35
Правообладатель                          : © 1981 Twentieth Century Fox Film Corporation.
Обложка                                  : Yes
sonm                                     : Omen III
desc                                     : Дэмиену Торну теперь 32. Стремясь к власти над всем миром он предан только себе и своему родному отцу — Сатане.
ldes                                     : Дэмиену Торну теперь 32. Стремясь к власти над всем миром он предан только себе и своему родному отцу — Сатане. Чтобы достичь своей цели, он убивает всех на своем пути — будь то друг, враг, верный слуга или любовница. / Темным силам противостоит лишь поклявшийся уничтожить дьявольское отродье старый монах с семью святыми кинжалами, выкованными специально для этого дела. Но хватит ли у него сил для осуществления своего плана или умрет как все, и мир повергнется в пучину хаоса?
stik                                     : 9
rtng                                     : 0
cnID                                     : 280653738
xid                                      : Apple:vendor_id:1981-22698
iTunEXTC                                 : mpaa|R|400|
iTunMOVI                                 : <?xml version="1.0" encoding="UTF-8"?> / <!DOCTYPE plist PUBLIC "-/Apple/DTD PLIST 1.0/EN" "http:/www.apple.com/DTDs/PropertyList-1.0.dtd"> / <plist version="1.0"> / <dict> /  <key>cast</key> /  <array> /   <dict> /    <key>name</key> /    <string>Сэм Нил</string> /   </dict> /   <dict> /    <key>name</key> /    <string>Россано Брацци</string> /   </dict> /   <dict> /    <key>name</key> /    <string>Дон Гордон</string> /   </dict> /   <dict> /    <key>name</key> /    <string>Лиза Хэрроу</string> /   </dict> /   <dict> /    <key>name</key> /    <string>Барнеби Холм</string> /   </dict> /   <dict> /    <key>name</key> /    <string>Мейсон Эдамс</string> /   </dict> /   <dict> /    <key>name</key> /    <string>Роберт Арден</string> /   </dict> /   <dict> /    <key>name</key> /    <string>Леуин Уиллогби</string> /   </dict> /   <dict> /    <key>name</key> /    <string>Марк Бойл</string> /   </dict> /   <dict> /    <key>name</key> /    <string>Милош Кирек</string> /   </dict> /  </array> /  <key>directors</key> /  <array> /   <dict> /    <key>name</key> /    <string>Грэм Бейкер</string> /   </dict> /  </array> /  <key>producers</key> /  <array> /   <dict> /    <key>name</key> /    <string>Харви Бернхард</string> /   </dict> /   <dict> /    <key>name</key> /    <string>Эндрю Биркин</string> /   </dict> /   <dict> /    <key>name</key> /    <string>Ричард Доннер</string> /   </dict> /  </array> /  <key>screenwriters</key> /  <array> /   <dict> /    <key>name</key> /    <string>Эндрю Биркин</string> /   </dict> /   <dict> /    <key>name</key> /    <string>Дэвид Зельцер</string> /   </dict> /  </array> /  <key>studio</key> /  <string>20th Century Fox</string> / </dict> / </plist>
Видео
Идентификатор                            : 1
Формат                                   : AVC
Формат/Информация                        : Advanced Video Codec
Профиль формата                          : [email protected]
Параметр CABAC формата                   : Нет
Параметр ReFrames формата                : 2 кадра
Идентификатор кодека                     : avc1
Идентификатор кодека/Информация          : Advanced Video Coding
Продолжительность                        : 1 ч. 48 м.
Вид битрейта                             : Переменный
Битрейт                                  : 1750 Кбит/сек
Ширина                                   : 640 пикселей
Высота                                   : 360 пикселей
Соотношение сторон                       : 2,35:1
Соотношение сторон в оригинале           : 2,35:1
Режим частоты кадров                     : Переменный
Частота кадров                           : 23,976 кадра/сек
Минимальная частота кадров               : 23,974 кадра/сек
Максимальная частота кадров              : 23,981 кадра/сек
Цветовое пространство                    : YUV
Субдискретизация насыщенности            : 4:2:0
Битовая глубина                          : 8 бит
Тип развёртки                            : Прогрессивная
Бит/(Пиксели*Кадры)                      : 0.317
Размер потока                            : 1,32 Гбайт (87%)
Библиотека кодирования                   : x264 core 120
Настройки программы                      : cabac=0 / ref=2 / deblock=1:-3:-3 / analyse=0x1:0x131 / me=umh / subme=6 / psy=1 / psy_rd=0.00:0.00 / mixed_ref=1 / me_range=24 / chroma_me=1 / trellis=0 / 8x8dct=0 / cqm=0 / deadzone=21,11 / fast_pskip=0 / chroma_qp_offset=0 / threads=12 / sliced_threads=0 / nr=0 / decimate=1 / interlaced=0 / bluray_compat=0 / constrained_intra=0 / bframes=0 / weightp=0 / keyint=240 / keyint_min=24 / scenecut=40 / intra_refresh=0 / rc_lookahead=40 / rc=2pass / mbtree=1 / bitrate=1750 / ratetol=1.0 / qcomp=0.60 / qpmin=3 / qpmax=69 / qpstep=4 / cplxblur=20.0 / qblur=0.5 / ip_ratio=1.40 / aq=1:1.00
Язык                                     : English
Дата кодирования                         : UTC 2012-10-17 16:20:59
Дата пометки                             : UTC 2012-10-17 17:20:44
Основные цвета                           : BT.709-5, BT.1361, IEC 61966-2-4, SMPTE RP177
Характеристики трансфера                 : BT.709-5, BT.1361
Коэффициенты матрицы                     : BT.709-5, BT.1361, IEC 61966-2-4 709, SMPTE RP177
Аудио #1
Идентификатор                            : 2
Формат                                   : AAC
Формат/Информация                        : Advanced Audio Codec
Профиль формата                          : LC
Идентификатор кодека                     : 40
Продолжительность                        : 1 ч. 48 м.
Вид битрейта                             : Переменный
Битрейт                                  : 132 Кбит/сек
Максимальный битрейт                     : 182 Кбит/сек
Каналы                                   : 2 канала
Расположение каналов                     : Front: L R
Частота                                  : 48,0 КГц
Метод сжатия                             : С потерями
Размер потока                            : 102 Мбайт (7%)
Язык                                     : Russian
Дата кодирования                         : UTC 2012-10-18 17:00:13
Дата пометки                             : UTC 2012-10-18 17:00:21
Аудио #2
Идентификатор                            : 3
Формат                                   : AAC
Формат/Информация                        : Advanced Audio Codec
Профиль формата                          : LC
Идентификатор кодека                     : 40
Продолжительность                        : 1 ч. 48 м.
Вид битрейта                             : Переменный
Битрейт                                  : 132 Кбит/сек
Максимальный битрейт                     : 210 Кбит/сек
Каналы                                   : 2 канала
Расположение каналов                     : Front: L R
Частота                                  : 48,0 КГц
Метод сжатия                             : С потерями
Размер потока                            : 102 Мбайт (7%)
Язык                                     : English
Дата кодирования                         : UTC 2012-10-18 17:00:13
Дата пометки                             : UTC 2012-10-18 17:00:29
Текст #1
Идентификатор                            : 4
Формат                                   : Timed text
Режим смешивания                         : sbtl
Идентификатор кодека                     : tx3g
Продолжительность                        : 1 ч. 48 м.
Вид битрейта                             : Переменный
Битрейт                                  : 72 бит/сек
Размер потока                            : 56,9 Кбайт (0%)
Язык                                     : Russian
Дата кодирования                         : UTC 2012-10-18 17:00:13
Дата пометки                             : UTC 2012-10-18 17:00:29
Текст #2
Идентификатор                            : 5
Формат                                   : Timed text
Режим смешивания                         : sbtl
Идентификатор кодека                     : tx3g
Продолжительность                        : 1 ч. 44 м.
Вид битрейта                             : Переменный
Битрейт                                  : 56 бит/сек
Размер потока                            : 43,1 Кбайт (0%)
Язык                                     : English
Дата кодирования                         : UTC 2012-10-18 17:00:13
Дата пометки                             : UTC 2012-10-18 17:00:29
Текст #3
Идентификатор                            : 6
Формат                                   : Apple text
Идентификатор кодека                     : text
Продолжительность                        : 1 ч. 48 м.
Вид битрейта                             : Переменный
Битрейт                                  : 1 бит/сек
Размер потока                            : 495 байт (0%)
Дата кодирования                         : UTC 2012-10-18 17:00:59
Дата пометки                             : UTC 2012-10-18 17:00:59
Меню
00:00:00.000                             : Chapter 1
00:04:09.832                             : Chapter 2
00:08:27.924                             : Chapter 3
00:13:40.820                             : Chapter 4
00:17:29.089                             : Chapter 5
00:19:35.591                             : Chapter 6
00:22:45.113                             : Chapter 7
00:28:40.260                             : Chapter 8
00:37:54.772                             : Chapter 9
00:41:36.535                             : Chapter 10
00:47:36.436                             : Chapter 11
00:53:53.730                             : Chapter 12
01:02:33.082                             : Chapter 13
01:08:28.979                             : Chapter 14
01:18:35.293                             : Chapter 15
01:24:10.420                             : Chapter 16
01:32:19.534                             : Chapter 17
01:36:56.477                             : Chapter 18
01:41:55.359                             : Chapter 19
01:46:11.531                             : Chapter 20
01:48:19.784                             : Chapter 21

x264 Log
Код:
Код:
x264 [info]: frame I:3020  Avg QP:14.63  size: 23803  PSNR Mean Y:48.43 U:50.47 V:51.29 Avg:49.03 Global:48.42
x264 [info]: frame P:152825 Avg QP:16.62  size:  8834  PSNR Mean Y:45.63 U:48.02 V:49.10 Avg:46.36 Global:45.83
x264 [info]: mb I  I16..4: 50.8%  0.0% 49.2%
x264 [info]: mb P  I16..4:  4.2%  0.0%  4.6%  P16..4: 50.2% 31.2%  2.3%  0.0%  0.5%    skip: 7.0%
x264 [info]: coded y,uvDC,uvAC intra: 76.5% 62.9% 39.3% inter: 37.7% 19.5% 2.8%
x264 [info]: i16 v,h,dc,p: 28% 11% 37% 24%
x264 [info]: i4 v,h,dc,ddl,ddr,vr,hd,vl,hu: 29% 13% 21%  6%  7%  7%  6%  6%  5%
x264 [info]: i8c dc,h,v,p: 55% 15% 23%  6%
x264 [info]: ref P L0: 64.7% 35.3%
x264 [info]: SSIM Mean Y:0.9822652 (17.512db)
x264 [info]: PSNR Mean Y:45.682 U:48.064 V:49.138 Avg:46.415 Global:45.870 kb/s:1750.14

HD версия фильма



Вернуться к началу
 Профиль Отправить личное сообщение  
 
   Похожие торренты   Автор   Торрент   Размер 
В этой теме нет новых непрочитанных сообщений. Омен / The Omen [Ужасы, триллер, 2006] BDRemux 1080p, Dub

salma3

0 | 0

22.36 ГБ

В этой теме нет новых непрочитанных сообщений. Двойная рокировка: Трилогия / Infernal Affairs: Trilogy (Вэй Кеунг Лау, Сиу Фай Мак / Wai Keung Lau, Siu Fai Mak)[ 2002г., Гонконг, боевик, драма, детектив, BDRip] Dub

Alfredovich

18 | 4

6.55 ГБ

В этой теме нет новых непрочитанных сообщений. Cailey Taylor (114) (Kailey Taylor, Calie Taylor, Jamie Lynn, Kelly Taylor, Caily Taylor) MegaPack [2002-2011, All Sex, MILF, Big Tits, Anal, DP, IR, GangBang]

salma3

13 | 4

21.79 ГБ

В этой теме нет новых непрочитанных сообщений. Артур и минипуты: трилогия / Arthur et les Minimoys: Trilogy (2006, 2009, 2010) BDRip [1080p]

marya111

0 | 3

32.1 ГБ

В этой теме нет новых непрочитанных сообщений. Аватар: Легенда об Аанге. Трилогия / Avatar: The Last Airbender. Trilogy [S01-03 из 03] (2005-2008) BDRip 1080p | Remastered

marya111

59 | 43

29.33 ГБ

В этой теме нет новых непрочитанных сообщений. Долгая ночь Эбби Тейлор / La Lunga Notte Di Abby Taylor (2013) WEBRip

salma3

55 | 7

1.6 ГБ

В этой теме нет новых непрочитанных сообщений. The Best Of Lola Taylor / Лучшее от Лолы Тейлор (Private) [2016 г., Anal Sex, DP, Compilation, 540p, WEB-DL][ Split Scenes]

salma3

29 | 9

2.6 ГБ


Начать новую тему Ответить на тему  [ 1 сообщение ] 




Для Мосгорсуда, Роскомнадзора и рекламодателей:: mosgorsud-torrent[собачка]yandex.ru
cron