Торрент файл
скачать торрент магнет ссылка Добавлен: 05 янв 2013, 22:49
Размер: 5.26 ГБ
Сидеров: 2
Личеров: 4
Автор

СообщениеДобавлено: 05 янв 2013, 22:49 

Не в сети
Супермодератор
Аватара пользователя
Дата регистрации:
11 апр 2010, 18:10
Спасибо: 5995 / 7
Сообщения: 56685
id="p-25224744-1">Хороший, плохой, злой / The Good, the Bad and the Ugly / Il buono, il brutto, il cattivo«Для этих трех мужчин гражданская война - не ад, для них она - учебка!»

Страна: Италия, Испания, Германия
Жанр: приключения, вестерн
Год выпуска: 1966
Продолжительность: 02:54:23
Перевод: Профессиональный (многоголосый закадровый)
Оригинальная аудиодорожка: есть
Режиссер: Серджио Леоне
Сценарий: Адженоре Инкроччи, Фурио Скарпелли, Лючано Винченцони
Продюсер: Альберто Гримальди
В ролях: Клинт Иствуд /Clint Eastwood/, Ли Ван Клиф /Lee Van Cleef/, Илай Уоллак /Eli Wallach/, Альдо Джеффре /Aldo Giuffre/, Луиджи Пистилли /Luigi Pistilli/, Бенито Стефанелли /Benito Stefanelli/, Марио Брега /Mario Brega/
Описание: В разгар гражданской войны таинственный стрелок скитается по просторам Дикого Запада. У него нет ни дома, ни друзей, ни компаньонов, пока он не встречает двоих незнакомцев, таких же безжалостных и циничных.
По воле судьбы трое мужчин вынуждены объединить свои усилия в поисках украденного золота. Но совместная работа — не самое подходящее занятие для таких отъявленных бандитов, как они. Компаньоны вскоре понимают, что в их дерзком и опасном путешествии по разоренной войной стране самое важное — никому не доверять и держать пистолет наготове, если хочешь остаться в живых.
Качество: BDRip
Исходник: BD-Remux
Формат: m4v
Видео кодек: H.264
Аудио кодек: AAC
Видео: 1024x432, 3500 Kbps, 23,976 fps
Аудио RUS: 48 kHz, AAC, 2ch, 174 kbps - Профессиональный (многоголосый закадровый - SomeWax)
Аудио RUS: 48 kHz, AAC, 2ch, 177 kbps - Профессиональный (двухголосый закадровый - П.Гланц и И.Королёва)
Аудио RUS: 48 kHz, AAC, 2ch, 169 kbps - Профессиональный (многоголосый закадровый - Петербург, 5й канал)
Аудио ENG: 48 kHz, AAC, 2ch, 177 kbps - Английский
Аудио ITA: 48 kHz, AAC, 2ch, 107 kbps - Итальянский
MediaInfo
Код:
Код:
The Good, the Bad and the Ugly_new.m4v
Формат : MPEG-4
Идентификатор кодека : M4V
Размер файла : 5,26 Гбайт
Продолжительность : 2 ч. 54 м.
Общий поток : 4316 Кбит/сек
Название фильма : Хороший, плохой, злой
Исполнитель : Sergio Leone
Жанр : Western
Дата записи : UTC 1967-12-29 08:00:00
Дата кодирования : UTC 2011-12-30 04:18:17
Дата пометки : UTC 2011-12-31 12:32:55
Обложка : Yes
soar : Sergio Leone
desc : В разгар гражданской войны таинственный стрелок скитается по просторам Дикого Запада. У него нет ни дома, ни друзей, ни компаньонов, пока он не встречает двоих незнакомцев, таких же безжалостных и циничных.
ldes : В разгар гражданской войны таинственный стрелок скитается по просторам Дикого Запада. У него нет ни дома, ни друзей, ни компаньонов, пока он не встречает двоих незнакомцев, таких же безжалостных и циничных.
hdvd : 1
stik : 9
rtng : 0
cnID : 270778212
xid : iPad:vendor_id:1967-349
iTunEXTC : mpaa|R|400|
iTunMOVI : / / / / cast / / / name / Эли Уоллах / / / name / Клинт Иствуд / / / name / Ли Ван Клиф / / / name / Марио Брега / / / name / Рада Рассимов / / / name / Альдо Джуффре / / / name / Луиджи Пистилли / / / name / Антонио Касас / / / name / Антонио Молино Рохо / / / name / Антонио Казале / / / directors / / / name / Серджио Леоне / / / producers / / / name / Альберто Гримальди / / / screenwriters / / / name / Адженоре Инкроччи / / / name / Фурио Скарпелли / / / name / Лючано Винченцони / / / /
Видео
Идентификатор : 1
Формат : AVC
Формат/Информация : Advanced Video Codec
Профиль формата : [email protected]
Параметр CABAC формата : Да
Параметр ReFrames формата : 9 кадры
Идентификатор кодека : avc1
Идентификатор кодека/Информация : Advanced Video Coding
Продолжительность : 2 ч. 54 м.
Вид битрейта : Переменный
Битрейт : 3500 Кбит/сек
Максимальный битрейт : 11,3 Мбит/сек
Ширина : 1024 пикс.
Высота : 432 пикс.
Соотношение сторон : 2,35:1
Режим частоты кадров : Переменный
Частота кадров : 23,976 кадр/сек
Минимальная частота кадров : 23,969 кадр/сек
Максимальная частота кадров : 24,038 кадр/сек
Цветовое пространство : YUV
Подвыборка цветности : 4:2:0
Битовая глубина : 8 бит
Тип развёртки : Прогрессивная
Бит/(Пиксели*Кадры) : 0.330
Размер потока : 4,26 Гбайт (81%)
Библиотека кодирования : x264 core 112
Настройки программы : cabac=1 / ref=9 / deblock=1:0:0 / analyse=0x3:0x113 / me=umh / subme=9 / psy=1 / psy_rd=1.00:0.00 / mixed_ref=1 / me_range=32 / chroma_me=1 / trellis=1 / 8x8dct=1 / cqm=0 / deadzone=21,11 / fast_pskip=1 / chroma_qp_offset=-2 / threads=3 / sliced_threads=0 / nr=0 / decimate=1 / interlaced=0 / constrained_intra=0 / bframes=6 / b_pyramid=2 / b_adapt=1 / b_bias=0 / direct=1 / weightb=1 / open_gop=0 / weightp=2 / keyint=240 / keyint_min=23 / scenecut=40 / intra_refresh=0 / rc_lookahead=40 / rc=2pass / mbtree=1 / bitrate=3500 / ratetol=1.0 / qcomp=0.60 / qpmin=3 / qpmax=51 / qpstep=4 / cplxblur=20.0 / qblur=0.5 / ip_ratio=1.40 / aq=1:1.00
Язык : English
Дата кодирования : UTC 2011-12-30 04:18:17
Дата пометки : UTC 2011-12-30 04:35:04
Основные цвета : BT.709-5, BT.1361, IEC 61966-2-4, SMPTE RP177
Характеристики трансфера : BT.709-5, BT.1361
Коэффициенты матрицы : BT.709-5, BT.1361, IEC 61966-2-4 709, SMPTE RP177
Аудио #1
Идентификатор : 2
Формат : AAC
Формат/Информация : Advanced Audio Codec
Профиль формата : LC
Идентификатор кодека : 40
Продолжительность : 2 ч. 54 м.
Вид битрейта : Переменный
Битрейт : 174 Кбит/сек
Максимальный битрейт : 238 Кбит/сек
Канал(ы) : 2 канала(ов)
Расположение каналов : Front: L R
Частота : 48,0 КГц
Метод сжатия : С потерями
Размер потока : 217 Мбайт (4%)
Заголовок : Russian stereo - Mvo R5/SomeWax/
Язык : Russian
Дата кодирования : UTC 2011-12-30 04:32:38
Дата пометки : UTC 2011-12-30 04:35:04
Аудио #2
Идентификатор : 3
Формат : AAC
Формат/Информация : Advanced Audio Codec
Профиль формата : LC
Идентификатор кодека : 40
Продолжительность : 2 ч. 54 м.
Вид битрейта : Переменный
Битрейт : 177 Кбит/сек
Максимальный битрейт : 246 Кбит/сек
Канал(ы) : 2 канала(ов)
Расположение каналов : Front: L R
Частота : 48,0 КГц
Метод сжатия : С потерями
Размер потока : 221 Мбайт (4%)
Заголовок : Russian stereo - P.Glants i I.Koroleva
Язык : Russian
Дата кодирования : UTC 2011-12-30 04:33:46
Дата пометки : UTC 2011-12-30 04:35:04
Аудио #3
Идентификатор : 4
Формат : AAC
Формат/Информация : Advanced Audio Codec
Профиль формата : LC
Идентификатор кодека : 40
Продолжительность : 2 ч. 54 м.
Вид битрейта : Переменный
Битрейт : 169 Кбит/сек
Максимальный битрейт : 220 Кбит/сек
Канал(ы) : 2 канала(ов)
Расположение каналов : Front: L R
Частота : 48,0 КГц
Метод сжатия : С потерями
Размер потока : 211 Мбайт (4%)
Заголовок : Russian stereo - Mvo 5th TV channel
Язык : Russian
Дата кодирования : UTC 2011-12-30 04:34:06
Дата пометки : UTC 2011-12-30 04:35:04
Аудио #4
Идентификатор : 5
Формат : AAC
Формат/Информация : Advanced Audio Codec
Профиль формата : LC
Идентификатор кодека : 40
Продолжительность : 2 ч. 54 м.
Вид битрейта : Переменный
Битрейт : 177 Кбит/сек
Максимальный битрейт : 235 Кбит/сек
Канал(ы) : 2 канала(ов)
Расположение каналов : Front: L R
Частота : 48,0 КГц
Метод сжатия : С потерями
Размер потока : 221 Мбайт (4%)
Заголовок : English stereo
Язык : English
Дата кодирования : UTC 2011-12-30 04:34:27
Дата пометки : UTC 2011-12-30 04:35:04
Аудио #5
Идентификатор : 6
Формат : AAC
Формат/Информация : Advanced Audio Codec
Профиль формата : LC
Идентификатор кодека : 40
Продолжительность : 2 ч. 54 м.
Вид битрейта : Переменный
Битрейт : 107 Кбит/сек
Максимальный битрейт : 184 Кбит/сек
Канал(ы) : 2 канала(ов)
Расположение каналов : Front: L R
Частота : 48,0 КГц
Метод сжатия : С потерями
Размер потока : 134 Мбайт (2%)
Заголовок : Italian stereo
Язык : Italian
Дата кодирования : UTC 2011-12-30 04:34:47
Дата пометки : UTC 2011-12-30 04:35:04

Лог
Код:
Код:
x264 [info]: frame I:2218  Avg QP:17.97  size: 82915  PSNR Mean Y:45.01 U:48.91 V:49.11 Avg:45.96 Global:45.65
x264 [info]: frame P:120503 Avg QP:20.92  size: 28983  PSNR Mean Y:41.56 U:46.62 V:46.94 Avg:42.69 Global:42.40
x264 [info]: frame B:128160 Avg QP:23.29  size:  7035  PSNR Mean Y:40.09 U:46.44 V:46.77 Avg:41.37 Global:40.96
x264 [info]: consecutive B-frames:  8.9% 59.5% 23.0%  7.8%  0.4%  0.1%  0.3%
x264 [info]: mb I  I16..4:  3.8% 76.4% 19.8%
x264 [info]: mb P  I16..4:  0.3%  6.4%  0.8%  P16..4: 38.7% 31.6% 20.0%  0.0%  0.0%    skip: 2.2%
x264 [info]: mb B  I16..4:  0.0%  0.8%  0.1%  B16..8: 41.1%  8.0%  2.6%  direct: 5.3%  skip:42.1%  L0:41.7% L1:47.1% BI:11.1%
x264 [info]: 8x8 transform intra:83.8% inter:58.3%
x264 [info]: coded y,uvDC,uvAC intra: 96.1% 80.2% 45.0% inter: 45.6% 33.1% 2.8%
x264 [info]: i16 v,h,dc,p: 28% 19% 20% 33%
x264 [info]: i8 v,h,dc,ddl,ddr,vr,hd,vl,hu:  6%  7%  4% 11% 16% 14% 16% 11% 14%
x264 [info]: i4 v,h,dc,ddl,ddr,vr,hd,vl,hu:  6%  7%  2% 10% 16% 15% 17% 12% 16%
x264 [info]: i8c dc,h,v,p: 40% 26% 18% 16%
x264 [info]: Weighted P-Frames: Y:3.0% UV:1.4%
x264 [info]: ref P L0: 44.4% 14.4% 16.2%  6.3%  5.6%  3.9%  3.9%  2.0%  2.2%  0.9%  0.0%
x264 [info]: ref B L0: 71.9% 13.8%  5.1%  3.1%  2.1%  2.0%  1.5%  0.4%
x264 [info]: ref B L1: 96.7%  3.3%
x264 [info]: SSIM Mean Y:0.9616975 (14.168db)
x264 [info]: PSNR Mean Y:40.837 U:46.549 V:46.870 Avg:42.043 Global:41.621 kb/s:3500.08

Скриншоты
Для просмотра данного релиза на компьютере с ОС Windows рекомендуется использовать VLC media player



Вернуться к началу
 Профиль Отправить личное сообщение  
 
   Похожие торренты   Автор   Торрент   Размер 
В этой теме нет новых непрочитанных сообщений. Хороший, плохой, злой / Il buono, il brutto, il cattivo / The Good, the Bad and the Ugly [вестерн, 1966] BDRemux 1080р, Dub [Remastered]

salma3

10 | 18

39.39 ГБ

В этой теме нет новых непрочитанных сообщений. Плохой хороший полицейский 2 / Bon Cop Bad Cop 2 [боевик, комедия, криминал, 2017] BDRip 720p, Mvo

salma3

244 | 108

4.01 ГБ

В этой теме нет новых непрочитанных сообщений. Плохой хороший полицейский / Bon Cop, Bad Cop [боевик, триллер, комедия, криминал, 2006] BDRip 720p, Dub

salma3

15 | 1

4.37 ГБ

В этой теме нет новых непрочитанных сообщений. Великолепная семерка / The Magnificent Seven [боевик, приключения, вестерн, 2016] BDRip 720p, Dub [iPad] [Лицензия]

salma3

0 | 0

2.72 ГБ

В этой теме нет новых непрочитанных сообщений. Хороший динозавр / The Good Dinosaur [Мультфильм, фэнтези, комедия, приключения, семейный, 2015] BDRip 1080p, dub [чистый звук]

Dracon

321 | 12

4.5 ГБ

В этой теме нет новых непрочитанных сообщений. Плохой хороший полицейский 2 / Bon Cop Bad Cop 2 [боевик, комедия, криминал, 2017] WEBDLRip, Mvo

salma3

168 | 22

2.05 ГБ

В этой теме нет новых непрочитанных сообщений. Хороший динозавр / The Good Dinosaur (Питер Сон) [2015, Мультфильм, фэнтези, комедия, приключения, семейный, BDRip 1080p | Чистый звук] Dub

marya111

142 | 5

4.51 ГБ


Начать новую тему Ответить на тему  [ 1 сообщение ] 




Для Мосгорсуда, Роскомнадзора и рекламодателей:: mosgorsud-torrent[собачка]yandex.ru
cron