Торрент файл
скачать торрент магнет ссылка Добавлен: 05 янв 2013, 22:49
Размер: 3.27 ГБ
Сидеров: 1
Личеров: 3
Автор

СообщениеДобавлено: 05 янв 2013, 22:49 

Не в сети
Супермодератор
Аватара пользователя
Дата регистрации:
11 апр 2010, 18:10
Спасибо: 5995 / 7
Сообщения: 56685
id="p-25224744-1">
Деньги на двоих / Two for the Money«В теленовостях об этом не рассказывают. Правительство не может это запретить»


Страна: США
Жанр: триллер, драма, спорт
Год выпуска: 2005
Продолжительность: 02:02:49

Перевод: Профессиональный (полное дублирование)
Оригинальная аудиодорожка: Английский
Cубтитры: Русские, Английские
Режиссер: Ди Джей Карузо / D.J. Caruso

В ролях: Аль Пачино (Walter Abrams), Мэттью МакКонахи (Brandon Lang), Рене Руссо (Toni Morrow), Арманд Ассанте (Novian), Джереми Пивен (Jerry), Джейми Кинг (Alexandria), Кевин Чэпмен (Southie), Ральф Гармен (Reggie), Гедде Ватанабе (Milton), Карли Поуп (Tammy), Чарльз Кэррол (Chuck), Джерард Планкет (Herbie)
Дублёры: Владимир Еремин (Walter Abrams), Денис Беспалый (Brandon Lang), Ольга Зубкова (Toni Morrow), Вадим Андреев (Novian), Сергей Бурунов (Jerry), Александр Новиков, Борис Токарев (Leon), Дмитрий Полонский (Reggie), Андрей Ярославцев (Chuck), Андрей Казанцев (Herbie), Пётр Иващенко (Amir), Прохор Чеховской (Denny)

Описание: Форвард успешной футбольной команды Брэндон, получив травму и навсегда распрощавшись со спортивной карьерой, вынужден искать иные способы заработка. Тут-то он и вспоминает знаменитого букмекера Уолтера, некогда предлагавшего Брэндону выгодные аферы, на которые звезда футбола всегда отвечал гордым отказом.
Уолтер, знающий наверняка, как легко и быстро приумножить капитал, заключает с экс-футболистом авантюрный договор. Жонглируя миллионами долларов, Брэндон и Уолтер вступают в опасную игру, где проигрыш подобен смерти. К ним в руки плывут бешеные деньги, но выдержит ли Боливар двоих?…
Рейтинг
imdb.com: 6.10 (21 079)
MPAA: R - Лицам до 17 лет обязательно присутствие взрослого
Качество видео: BDRip - Исходник BD Remux
Формат видео: m4v
Видео кодек: H.264
Аудио кодек: AAC
Видео: 1280х544 (2.35:1), 23,976 fps, H.264 3500 kbps avg, 0.210 bit/pixel
Аудио #1: Russian, 48,0 kHz, AAC LC, 2 ch, 161 kbps avg | DUB
Аудио #2: English, 48,0 kHz, AAC LC, 2 ch, 144 kbps avg | Original
MediaInfo
Код:
Код:
General
Complete name                            : D:\iPad\Two for the Money\Two.for.the.Money.2005.BDRip.m4v
Format                                   : MPEG-4
Codec ID                                 : M4V
File size                                : 3.27 GiB
Duration                                 : 2h 2mn
Overall bit rate mode                    : Variable
Overall bit rate                         : 3 807 Kbps
Movie name                               : Деньги на двоих
Performer                                : Ди Джей Карузо
Genre                                    : триллер, драма, спорт
Recorded date                            : UTC 2005-10-07 07:00:00
Encoded date                             : UTC 2011-11-23 14:55:54
Tagged date                              : UTC 2011-11-24 15:09:06
Writing application                      : MkvToMp4 [www.mkvtomp4.ru] version 0.217
Cover                                    : Yes
soar                                     : Ди Джей Карузо
desc                                     : Форвард успешной футбольной команды Брэндон, получив травму и навсегда распрощавшись со спортивной карьерой, вынужден искать иные способы заработка.
ldes                                     : Форвард успешной футбольной команды Брэндон, получив травму и навсегда распрощавшись со спортивной карьерой, вынужден искать иные способы заработка. Тут-то он и вспоминает знаменитого букмекера Уолтера, некогда предлагавшего Брэндону выгодные аферы, на которые звезда футбола всегда отвечал гордым отказом. Уолтер, знающий наверняка, как легко и быстро приумножить капитал, заключает с экс-футболистом авантюрный договор. Жонглируя миллионами долларов, Брэндон и Уолтер вступают в опасную игру, где проигрыш подобен смерти. К ним в руки плывут бешеные деньги, но выдержит ли Боливар двоих?…
hdvd                                     : 1
stik                                     : 9
cnID                                     : 307649215
xid                                      : RG-Apple:vendor_id:2005-81491
iTunEXTC                                 : mpaa|R|400|
iTunMOVI                                 : <?xml version="1.0" encoding="UTF-8"?> / <!DOCTYPE plist PUBLIC "-/Apple/DTD PLIST 1.0/EN" "http:/www.apple.com/DTDs/PropertyList-1.0.dtd"> / <plist version="1.0"> /  <dict> /   <key>cast</key> /   <array> /    <dict> /     <key>name</key> /     <string>Аль Пачино</string> /    </dict> /    <dict> /     <key>name</key> /     <string>Мэттью МакКонахи</string> /    </dict> /    <dict> /     <key>name</key> /     <string>Рене Руссо</string> /    </dict> /    <dict> /     <key>name</key> /     <string>Арманд Ассанте</string> /    </dict> /    <dict> /     <key>name</key> /     <string>Джереми Пивен</string> /    </dict> /    <dict> /     <key>name</key> /     <string>Джейми Кинг</string> /    </dict> /    <dict> /     <key>name</key> /     <string>Кевин Чэпмен</string> /    </dict> /    <dict> /     <key>name</key> /     <string>Ральф Гармен</string> /    </dict> /    <dict> /     <key>name</key> /     <string>Гедде Ватанабе</string> /    </dict> /    <dict> /     <key>name</key> /     <string>Карли Поуп</string> /    </dict> /    <dict> /     <key>name</key> /     <string>Чарльз Кэррол</string> /    </dict> /    <dict> /     <key>name</key> /     <string>Джерард Планкет</string> /    </dict> /   </array> /   <key>directors</key> /   <array> /    <dict> /     <key>name</key> /     <string>Ди Джей Карузо</string> /    </dict> /   </array> /   <key>producers</key> /   <array> /    <dict> /     <key>name</key> /     <string>Дэн Гилрой</string> /    </dict> /   </array> /   <key>screenwriters</key> /   <array> /    <dict> /     <key>name</key> /     <string>Джей Коэн</string> /    </dict> /    <dict> /     <key>name</key> /     <string>Джеймс Дж. Робинсон</string> /    </dict> /    <dict> /     <key>name</key> /     <string>Джеймс М. Фрейтаг</string> /    </dict> /   </array> /  </dict> / </plist>
Video
ID                                       : 1
Format                                   : AVC
Format/Info                              : Advanced Video Codec
Format profile                           : [email protected]
Format settings, CABAC                   : Yes
Format settings, ReFrames                : 10 frames
Codec ID                                 : avc1
Codec ID/Info                            : Advanced Video Coding
Duration                                 : 2h 2mn
Bit rate                                 : 3 500 Kbps
Maximum bit rate                         : 12.4 Mbps
Width                                    : 1 280 pixels
Height                                   : 544 pixels
Display aspect ratio                     : 2.35:1
Frame rate mode                          : Variable
Frame rate                               : 23.976 fps
Minimum frame rate                       : 23.810 fps
Maximum frame rate                       : 24.390 fps
Color space                              : YUV
Chroma subsampling                       : 4:2:0
Bit depth                                : 8 bits
Scan type                                : Progressive
Bits/(Pixel*Frame)                       : 0.210
Stream size                              : 2.99 GiB (92%)
Writing library                          : x264 core 112
Encoding settings                        : cabac=1 / ref=10 / deblock=1:0:0 / analyse=0x3:0x113 / me=umh / subme=9 / psy=1 / psy_rd=1.00:0.00 / mixed_ref=1 / me_range=32 / chroma_me=1 / trellis=1 / 8x8dct=1 / cqm=0 / deadzone=21,11 / fast_pskip=1 / chroma_qp_offset=-2 / threads=12 / sliced_threads=0 / nr=0 / decimate=1 / interlaced=0 / constrained_intra=0 / bframes=6 / b_pyramid=2 / b_adapt=1 / b_bias=0 / direct=1 / weightb=1 / open_gop=0 / weightp=2 / keyint=240 / keyint_min=23 / scenecut=40 / intra_refresh=0 / rc_lookahead=40 / rc=2pass / mbtree=1 / bitrate=3500 / ratetol=1.0 / qcomp=0.60 / qpmin=3 / qpmax=51 / qpstep=4 / cplxblur=20.0 / qblur=0.5 / ip_ratio=1.40 / aq=1:1.00
Language                                 : English
Encoded date                             : UTC 2011-11-23 14:55:54
Tagged date                              : UTC 2011-11-23 14:58:23
Color primaries                          : BT.709-5, BT.1361, IEC 61966-2-4, SMPTE RP177
Transfer characteristics                 : BT.709-5, BT.1361
Matrix coefficients                      : BT.709-5, BT.1361, IEC 61966-2-4 709, SMPTE RP177
Audio #1
ID                                       : 2
Format                                   : AAC
Format/Info                              : Advanced Audio Codec
Format profile                           : LC
Codec ID                                 : 40
Duration                                 : 2h 2mn
Bit rate mode                            : Variable
Bit rate                                 : 161 Kbps
Maximum bit rate                         : 254 Kbps
Channel(s)                               : 2 channels
Channel positions                        : Front: L R
Sampling rate                            : 48.0 KHz
Compression mode                         : Lossy
Stream size                              : 142 MiB (4%)
Title                                    : DUB
Language                                 : Russian
Encoded date                             : UTC 2011-11-23 14:57:07
Tagged date                              : UTC 2011-11-23 14:58:23
Audio #2
ID                                       : 3
Format                                   : AAC
Format/Info                              : Advanced Audio Codec
Format profile                           : LC
Codec ID                                 : 40
Duration                                 : 2h 2mn
Bit rate mode                            : Variable
Bit rate                                 : 144 Kbps
Maximum bit rate                         : 228 Kbps
Channel(s)                               : 2 channels
Channel positions                        : Front: L R
Sampling rate                            : 48.0 KHz
Compression mode                         : Lossy
Stream size                              : 126 MiB (4%)
Title                                    : Original
Language                                 : English
Encoded date                             : UTC 2011-11-23 14:57:53
Tagged date                              : UTC 2011-11-23 14:58:23
Text #1
ID                                       : 4
Format                                   : Timed text
Muxing mode                              : sbtl
Codec ID                                 : tx3g
Duration                                 : 1h 58mn
Bit rate mode                            : Variable
Bit rate                                 : 149 bps
Stream size                              : 129 KiB (0%)
Language                                 : Russian
Encoded date                             : UTC 2011-11-23 14:58:23
Tagged date                              : UTC 2011-11-23 14:58:23
Text #2
ID                                       : 5
Format                                   : Timed text
Muxing mode                              : sbtl
Codec ID                                 : tx3g
Duration                                 : 1h 56mn
Bit rate mode                            : Variable
Bit rate                                 : 99 bps
Stream size                              : 84.8 KiB (0%)
Language                                 : English
Encoded date                             : UTC 2011-11-23 14:58:23
Tagged date                              : UTC 2011-11-23 14:58:23

x264 log
Код:
Код:
x264 [info]: frame I:2396  Avg QP:17.84  size: 83767  PSNR Mean Y:45.37 U:49.92 V:51.20 Avg:46.46 Global:46.16
x264 [info]: frame P:105216 Avg QP:20.46  size: 22636  PSNR Mean Y:43.18 U:48.82 V:50.02 Avg:44.38 Global:44.10
x264 [info]: frame B:68681 Avg QP:22.42  size:  9188  PSNR Mean Y:42.98 U:51.99 V:51.53 Avg:44.19 Global:43.40
x264 [info]: consecutive B-frames: 31.6% 44.3% 12.1%  7.9%  2.2%  0.4%  1.5%
x264 [info]: mb I  I16..4:  7.5% 83.9%  8.6%
x264 [info]: mb P  I16..4:  0.4%  5.2%  0.4%  P16..4: 46.9% 24.8% 14.1%  0.0%  0.0%    skip: 8.2%
x264 [info]: mb B  I16..4:  0.0%  0.6%  0.0%  B16..8: 48.7%  8.7%  2.0%  direct: 3.1%  skip:36.9%  L0:47.5% L1:47.7% BI: 4.8%
x264 [info]: 8x8 transform intra:86.2% inter:71.5%
x264 [info]: coded y,uvDC,uvAC intra: 93.8% 77.5% 38.5% inter: 34.8% 35.9% 1.2%
x264 [info]: i16 v,h,dc,p: 45% 17% 10% 28%
x264 [info]: i8 v,h,dc,ddl,ddr,vr,hd,vl,hu:  6%  6%  3% 13% 17% 16% 15% 12% 12%
x264 [info]: i4 v,h,dc,ddl,ddr,vr,hd,vl,hu: 10%  7%  2% 10% 16% 16% 15% 13% 12%
x264 [info]: i8c dc,h,v,p: 36% 26% 22% 17%
x264 [info]: Weighted P-Frames: Y:1.2% UV:0.7%
x264 [info]: ref P L0: 47.9%  9.9% 16.2%  7.0%  5.3%  4.1%  3.6%  1.9%  1.7%  1.5%  0.8%  0.0%
x264 [info]: ref B L0: 60.0% 15.6%  9.0%  4.7%  3.6%  3.0%  2.4%  1.4%  0.3%
x264 [info]: ref B L1: 95.3%  4.7%
x264 [info]: SSIM Mean Y:0.9630397 (14.323db)
x264 [info]: PSNR Mean Y:43.132 U:50.071 V:50.629 Avg:44.332 Global:43.834 kb/s:3496.24

Скриншоты

Скриншоты с iPad




Вернуться к началу
 Профиль Отправить личное сообщение  
 
   Похожие торренты   Автор   Торрент   Размер 
В этой теме нет новых непрочитанных сообщений. Деньги на двоих / Two for the Money [триллер, драма, спорт, 2005] BDRemux 1080p, Dub

salma3

14 | 8

29.65 ГБ

В этой теме нет новых непрочитанных сообщений. Я заберу твои деньги / Blood Money [Триллер, драма, криминал, 2017] BDRip 720p, Dub [iTunes]

salma3

170 | 68

4.71 ГБ

В этой теме нет новых непрочитанных сообщений. Я заберу твои деньги / Blood Money [Триллер, драма, криминал, 2017] BDRip-AVC, Dub [iTunes]

salma3

0 | 0

1.82 ГБ

В этой теме нет новых непрочитанных сообщений. Я заберу твои деньги / Blood Money [Триллер, драма, криминал, 2017] BDRip 1080p, Dub [iTunes]

salma3

10 | 8

8.29 ГБ

В этой теме нет новых непрочитанных сообщений. Бугимен / Boogeyman [ужасы, триллер, драма, детектив, 2005] BDRip 720p, Dub [iPad]

salma3

0 | 0

2.12 ГБ

В этой теме нет новых непрочитанных сообщений. Я заберу твои деньги / Blood Money [триллер, 2017] BDRip, Avo

salma3

59 | 14

1.46 ГБ

В этой теме нет новых непрочитанных сообщений. Я заберу твои деньги / Blood Money [триллер, 2017] BDRip, Mvo

salma3

23 | 7

1.46 ГБ


Начать новую тему Ответить на тему  [ 1 сообщение ] 




Для Мосгорсуда, Роскомнадзора и рекламодателей:: mosgorsud-torrent[собачка]yandex.ru
cron