Торрент файл
скачать торрент магнет ссылка Добавлен: 05 янв 2013, 22:48
Размер: 5.26 ГБ
Сидеров: 7
Личеров: 5
Автор

СообщениеДобавлено: 05 янв 2013, 22:48 

Не в сети
Супермодератор
Аватара пользователя
Дата регистрации:
11 апр 2010, 18:10
Спасибо: 5995 / 7
Сообщения: 56685
id="p-25224744-1">Хищник. Полная Коллекция / Predator. The Complete Collection
Хищник / Predator
Год выпуска: 1987
Страна: США
Жанр: фантастика, боевик, триллер, приключения
Продолжительность: 01:46:35
Перевод : Профессиональный (многоголосый закадровый)
Русские субтитры: есть
Режиссёр: Джон МакТирнан / John McTiernan
В ролях: Арнольд Шварценеггер, Карл Уэзерс, Элпидия Каррильо, Билл Дьюк, Джесси Вентура, Сонни Лэндэм, Ричард Чавес, Р.Г. Армстронг, Шейн Блэк, Кевин Питер Холл
Описание: Американский вертолет был сбит партизанами в Южной Америке. Оставшийся в живых экипаж находится в плену. Центральное разведывательное управление США бросает свои лучшие силы для освобождения американских граждан.
Элитная группа спецназа во главе с Датчем была заброшена в южноамериканские джунгли. Операция шла по плану до тех пор, пока они не наткнулись на поляну с растерзанными телами, опознать которые не представлялось возможным. Только по обрывкам униформы стало понятно, что это и есть экипаж сбитого вертолета.Понимая, что операция провалена, Датч отдает приказ двигаться к точке эвакуации. По дороге становится ясно, что что-то невидимое, сливающееся с лесом, охотится на них. Охотится, методично убивая одного за другим, забирая себе страшный трофей — череп с позвоночником. В живых остается один Датч, готовый сразиться с инопланетным охотником.
Качество: BDRip
Формат: *.m4v
Видео кодек: H.264
аудио кодек: ААС
Разрешение: 592x320
Другие параметры видео: AVC at 960 Кбит/сек, 592 x 320 (1.850) at 23.976 fps
Аудио: AAC at 128 Кбит/сек, 2 канала, 48,0 КГц
Вшитая обложка: есть
Доп. теги (режиссёр, актёры и т.д.): прописаны
Телешоу/видеоклип : не требуется
Главы: нет
Серия/сезон: не требуется
MediaInfo
Общее
Полное имя : F:\Predator Collection\Predator.m4v
Формат : MPEG-4
Профиль формата : Base Media / Version 2
Идентификатор кодека : mp42
Размер файла : 931 Мбайт
Продолжительность : 1 ч. 46 м.
Режим общего битрейта : Переменный
Общий поток : 1222 Кбит/сек
Название фильма : Predator
Исполнитель : Джон МакТирнан
Жанр : Action & Adventure
Дата кодирования : UTC 2012-02-24 11:34:44
Дата пометки : UTC 2012-02-24 18:36:10
Программа кодирования : HandBrake 0.9.5 2011010300
Обложка : Yes
iTunMOVI : <?xml version="1.0" encoding="UTF-8"?> / <!DOCTYPE plist PUBLIC "-/Apple/DTD PLIST 1.0/EN" "http://www.apple.com/DTDs/PropertyList-1.0.dtd"> / <plist version="1.0"> / <dict> / <key>cast</key> / <array> / <dict> / <key>name</key> / <string>Арнольд Шварценеггер</string> / </dict> / <dict> / <key>name</key> / <string>Карл Уэзерс</string> / </dict> / <dict> / <key>name</key> / <string>Билл Дьюк</string> / </dict> / </array> / <key>directors</key> / <array> / <dict> / <key>name</key> / <string>Джон МакТирнан</string> / </dict> / </array> / <key>producers</key> / <array> / <dict> / <key>name</key> / <string>Джон Дэвис</string> / </dict> / <dict> / <key>name</key> / <string>Лоуренс Гордон</string> / </dict> / <dict> / <key>name</key> / <string>Бо Маркс</string> / </dict> / </array> / <key>screenwriters</key> / <array> / <dict> / <key>name</key> / <string>Джим Томас</string> / </dict> / <dict> / <key>name</key> / <string>Джон Томас</string> / </dict> / </array> / </dict> / </plist>
desc : Элитная группа спецназа получает задание узнать обстоятельства крушения вертолета в южноамериканских джунглях. Оказывается, что столкнуться им придется не только с вооруженными наемниками...
ldes : Элитная группа спецназа получает задание узнать обстоятельства крушения вертолета в южноамериканских джунглях. Оказывается, что столкнуться им придется не только с вооруженными наемниками... В джунглях на них самих устраивает охоту инопланетная тварь...
stik : 9
Видео
Идентификатор : 1
Формат : AVC
Формат/Информация : Advanced Video Codec
Профиль формата : [email protected]
Параметр CABAC формата : Нет
Параметр ReFrames формата : 2 кадра
Идентификатор кодека : avc1
Идентификатор кодека/Информация : Advanced Video Coding
Продолжительность : 1 ч. 46 м.
Вид битрейта : Переменный
Битрейт : 960 Кбит/сек
Ширина : 592 пикселя
Высота : 320 пикселей
Соотношение сторон : 1,850
Режим частоты кадров : Переменный
Частота кадров : 23,976 кадра/сек
Минимальная частота кадров : 23,810 кадра/сек
Максимальная частота кадров : 24,390 кадра/сек
Цветовое пространство : YUV
Субдискретизация насыщенности : 4:2:0
Битовая глубина : 8 бит
Тип развёртки : Прогрессивная
Бит/(Пиксели*Кадры) : 0.211
Размер потока : 732 Мбайт (79%)
Библиотека кодирования : x264 core 112
Настройки программы : cabac=0 / ref=2 / deblock=1:0:0 / analyse=0x1:0x111 / me=umh / subme=6 / psy=1 / psy_rd=1.00:0.00 / mixed_ref=1 / me_range=16 / chroma_me=1 / trellis=0 / 8x8dct=0 / cqm=0 / deadzone=21,11 / fast_pskip=1 / chroma_qp_offset=-2 / threads=6 / sliced_threads=0 / nr=0 / decimate=1 / interlaced=0 / constrained_intra=0 / bframes=0 / weightp=0 / keyint=240 / keyint_min=23 / scenecut=40 / intra_refresh=0 / rc_lookahead=40 / rc=2pass / mbtree=1 / bitrate=960 / ratetol=1.0 / qcomp=0.60 / qpmin=3 / qpmax=51 / qpstep=4 / cplxblur=20.0 / qblur=0.5 / ip_ratio=1.40 / aq=1:1.00
Дата кодирования : UTC 2012-02-24 11:34:44
Дата пометки : UTC 2012-02-24 12:15:31
Основные цвета : BT.709-5, BT.1361, IEC 61966-2-4, SMPTE RP177
Характеристики трансфера : BT.709-5, BT.1361
Коэффициенты матрицы : BT.709-5, BT.1361, IEC 61966-2-4 709, SMPTE RP177
Аудио #1
Идентификатор : 2
Формат : AAC
Формат/Информация : Advanced Audio Codec
Профиль формата : LC
Идентификатор кодека : 40
Продолжительность : 1 ч. 46 м.
Вид битрейта : Переменный
Битрейт : 128 Кбит/сек
Максимальный битрейт : 256 Кбит/сек
Каналы : 2 канала
Расположение каналов : Front: L R
Частота : 48,0 КГц
Метод сжатия : С потерями
Размер потока : 97,6 Мбайт (10%)
Язык : Russian
Дата кодирования : UTC 2012-02-24 11:34:44
Дата пометки : UTC 2012-02-24 12:15:31
Аудио #2
Идентификатор : 3
Формат : AAC
Формат/Информация : Advanced Audio Codec
Профиль формата : LC
Идентификатор кодека : 40
Продолжительность : 1 ч. 46 м.
Вид битрейта : Переменный
Битрейт : 128 Кбит/сек
Максимальный битрейт : 254 Кбит/сек
Каналы : 2 канала
Расположение каналов : Front: L R
Частота : 48,0 КГц
Метод сжатия : С потерями
Размер потока : 97,6 Мбайт (10%)
Язык : English
Дата кодирования : UTC 2012-02-24 11:34:44
Дата пометки : UTC 2012-02-24 12:15:31
Текст #1
Идентификатор : 4
Формат : Timed text
Режим смешивания : sbtl
Идентификатор кодека : tx3g
Продолжительность : 1 ч. 41 м.
Вид битрейта : Переменный
Битрейт : 33 бит/сек
Размер потока : 24,4 Кбайт (0%)
Язык : Russian
Дата кодирования : UTC 2012-02-24 11:34:44
Дата пометки : UTC 2012-02-24 12:13:57
Текст #2
Идентификатор : 5
Формат : Timed text
Режим смешивания : sbtl
Идентификатор кодека : tx3g
Продолжительность : 1 ч. 41 м.
Вид битрейта : Переменный
Битрейт : 22 бит/сек
Размер потока : 16,2 Кбайт (0%)
Язык : English
Дата кодирования : UTC 2012-02-24 11:34:44
Дата пометки : UTC 2012-02-24 12:13:57

Скриншоты

Хищник 2 / Predator 2

Год выпуска: 1990
Страна: США
Жанр: фантастика, боевик, триллер, приключения
Продолжительность: 01:48:00
Перевод : Профессиональный (полное дублирование)
Русские субтитры: есть
Режиссёр: Стивен Хопкинс / Stephen Hopkins
В ролях: Кевин Питер Холл, Дэнни Гловер, Гэри Бьюзи, Рубен Бладес, Мария Кончита Алонсо, Билл Пэкстон, Роберт Дави, Адам Болдуин, Кент МакКорд, Мортон Дауни мл.
Описание: Харриган — крутой полицейский отдела по борьбе с наркотиками полиции Лос — Анджелеса. Ему поручено расследование серии убийств крупных криминальных авторитетов города. Все убийства совершены в извращенной форме и пахнут неприкрытым садизмом. После проведения экспертиз и расследований становится ясно, что убийство — дело рук существа, не имеющего ничего общего с человеком.
Землю опять посетил межпланетный охотник, но ему придется столкнуться с существом еще более опасным, чем он сам — с человеком. Харриган выслеживает охотника, постепенно сам становясь охотником. Один на один, как настоящий воин, он ведет бескомпромиссную битву за сохранение чести и права человека не быть существом, на которое можно охотиться.
Качество: BDRip
Формат: *.m4v
Видео кодек: H.264
аудио кодек: ААС
Разрешение: 592x320
Другие параметры видео: AVC at 960 Кбит/сек, 592 x 320 (1.850) at 23.976 fps
Аудио: AAC at 128 Кбит/сек, 2 канала, 48,0 КГц
Вшитая обложка: есть
Доп. теги (режиссёр, актёры и т.д.): прописаны
Телешоу/видеоклип : не требуется
Главы: нет
Серия/сезон: не требуется
MediaInfo
Общее
Полное имя : F:\Predator Collection\Predator 2.m4v
Формат : MPEG-4
Профиль формата : Base Media / Version 2
Идентификатор кодека : mp42
Размер файла : 1,02 Гбайт
Продолжительность : 1 ч. 48 м.
Режим общего битрейта : Переменный
Общий поток : 1352 Кбит/сек
Название фильма : Predator 2
Исполнитель : Стивен Хопкинс
Жанр : Action & Adventure
Дата записи : 1990-11-19
Дата кодирования : UTC 2012-02-25 09:35:55
Дата пометки : UTC 2012-02-25 19:17:08
Программа кодирования : HandBrake 0.9.5 2011010300
Обложка : Yes
iTunEXTC : mpaa|R|400|
iTunMOVI : <?xml version="1.0" encoding="UTF-8"?> / <!DOCTYPE plist PUBLIC "-/Apple/DTD PLIST 1.0/EN" "http://www.apple.com/DTDs/PropertyList-1.0.dtd"> / <plist version="1.0"> / <dict> / <key>cast</key> / <array> / <dict> / <key>name</key> / <string>Кевин Питер Холл</string> / </dict> / <dict> / <key>name</key> / <string>Дэнни Гловер</string> / </dict> / <dict> / <key>name</key> / <string>Гэри Бьюзи</string> / </dict> / </array> / <key>directors</key> / <array> / <dict> / <key>name</key> / <string>Стивен Хопкинс</string> / </dict> / </array> / <key>producers</key> / <array> / <dict> / <key>name</key> / <string>Джон Дэвис</string> / </dict> / <dict> / <key>name</key> / <string>Лоуренс Гордон</string> / </dict> / <dict> / <key>name</key> / <string>Джоэл Силвер</string> / </dict> / </array> / <key>screenwriters</key> / <array> / <dict> / <key>name</key> / <string>Джим Томас</string> / </dict> / <dict> / <key>name</key> / <string>Джон Томас</string> / </dict> / </array> / </dict> / </plist>
desc : Инопланетный охотник возвращается. На этот раз местом его охотничьих угодий становится Нью-Йорк...
ldes : Инопланетный охотник возвращается. На этот раз местом его охотничьих угодий становится Нью-Йорк... / Тем временем полицейскому поручено расследование серии убийств криминальны авторитетов. Каждое убийство отдает чрезмерными садизмом и жестокостью...
stik : 9
Видео
Идентификатор : 1
Формат : AVC
Формат/Информация : Advanced Video Codec
Профиль формата : [email protected]
Параметр CABAC формата : Нет
Параметр ReFrames формата : 2 кадра
Параметр GOP формата : N=1
Идентификатор кодека : avc1
Идентификатор кодека/Информация : Advanced Video Coding
Продолжительность : 1 ч. 48 м.
Вид битрейта : Переменный
Битрейт : 960 Кбит/сек
Ширина : 592 пикселя
Высота : 320 пикселей
Соотношение сторон : 1,850
Режим частоты кадров : Переменный
Частота кадров : 23,976 кадра/сек
Минимальная частота кадров : 23,810 кадра/сек
Максимальная частота кадров : 24,390 кадра/сек
Цветовое пространство : YUV
Субдискретизация насыщенности : 4:2:0
Битовая глубина : 8 бит
Тип развёртки : Прогрессивная
Бит/(Пиксели*Кадры) : 0.211
Размер потока : 741 Мбайт (71%)
Библиотека кодирования : x264 core 112
Настройки программы : cabac=0 / ref=2 / deblock=1:0:0 / analyse=0x1:0x111 / me=umh / subme=6 / psy=1 / psy_rd=1.00:0.00 / mixed_ref=1 / me_range=16 / chroma_me=1 / trellis=0 / 8x8dct=0 / cqm=0 / deadzone=21,11 / fast_pskip=1 / chroma_qp_offset=-2 / threads=6 / sliced_threads=0 / nr=0 / decimate=1 / interlaced=0 / constrained_intra=0 / bframes=0 / weightp=0 / keyint=240 / keyint_min=23 / scenecut=40 / intra_refresh=0 / rc_lookahead=40 / rc=2pass / mbtree=1 / bitrate=960 / ratetol=1.0 / qcomp=0.60 / qpmin=3 / qpmax=51 / qpstep=4 / cplxblur=20.0 / qblur=0.5 / ip_ratio=1.40 / aq=1:1.00
Дата кодирования : UTC 2012-02-25 09:35:55
Дата пометки : UTC 2012-02-25 10:22:39
Основные цвета : BT.709-5, BT.1361, IEC 61966-2-4, SMPTE RP177
Характеристики трансфера : BT.709-5, BT.1361
Коэффициенты матрицы : BT.709-5, BT.1361, IEC 61966-2-4 709, SMPTE RP177
Аудио #1
Идентификатор : 2
Формат : AAC
Формат/Информация : Advanced Audio Codec
Профиль формата : LC
Идентификатор кодека : 40
Продолжительность : 1 ч. 47 м.
Вид битрейта : Переменный
Битрейт : 128 Кбит/сек
Максимальный битрейт : 285 Кбит/сек
Каналы : 2 канала
Расположение каналов : Front: L R
Частота : 48,0 КГц
Метод сжатия : С потерями
Размер потока : 98,8 Мбайт (9%)
Язык : Russian
Дата кодирования : UTC 2012-02-25 09:35:55
Дата пометки : UTC 2012-02-25 10:22:39
Аудио #2
Идентификатор : 3
Формат : AAC
Формат/Информация : Advanced Audio Codec
Профиль формата : LC
Идентификатор кодека : 40
Продолжительность : 1 ч. 48 м.
Вид битрейта : Переменный
Битрейт : 128 Кбит/сек
Максимальный битрейт : 266 Кбит/сек
Каналы : 2 канала
Расположение каналов : Front: L R
Частота : 48,0 КГц
Метод сжатия : С потерями
Размер потока : 98,9 Мбайт (9%)
Язык : Russian
Дата кодирования : UTC 2012-02-25 09:35:55
Дата пометки : UTC 2012-02-25 10:22:39
Аудио #3
Идентификатор : 4
Формат : AAC
Формат/Информация : Advanced Audio Codec
Профиль формата : LC
Идентификатор кодека : 40
Продолжительность : 1 ч. 47 м.
Вид битрейта : Переменный
Битрейт : 128 Кбит/сек
Максимальный битрейт : 234 Кбит/сек
Каналы : 2 канала
Расположение каналов : Front: L R
Частота : 48,0 КГц
Метод сжатия : С потерями
Размер потока : 98,8 Мбайт (9%)
Язык : English
Дата кодирования : UTC 2012-02-25 09:35:55
Дата пометки : UTC 2012-02-25 10:22:39
Текст #1
Идентификатор : 5
Формат : Timed text
Режим смешивания : sbtl
Идентификатор кодека : tx3g
Продолжительность : 1 ч. 41 м.
Вид битрейта : Переменный
Битрейт : 66 бит/сек
Размер потока : 49,1 Кбайт (0%)
Язык : Russian
Дата кодирования : UTC 2012-02-25 09:35:55
Дата пометки : UTC 2012-02-25 10:20:23
Текст #2
Идентификатор : 6
Формат : Timed text
Режим смешивания : sbtl
Идентификатор кодека : tx3g
Продолжительность : 1 ч. 41 м.
Вид битрейта : Переменный
Битрейт : 41 бит/сек
Размер потока : 30,6 Кбайт (0%)
Язык : English
Дата кодирования : UTC 2012-02-25 09:35:55
Дата пометки : UTC 2012-02-25 10:20:23

Скриншоты

Чужой против Хищника / Alien VS Predator

Год выпуска: 2004
Страна: США, Германия, Великобритания, Чехия
Жанр: фантастика, боевик, триллер, приключения
Продолжительность: 01:48:41
Перевод : Профессиональный (полное дублирование)
Русские субтитры: есть
Режиссёр: Пол У. С. Андерсон / Paul W.S. Anderson
В ролях: Санаа Лэтэн, Рауль Бова, Лэнс Хенриксен, Юэн Бремнер, Колин Сэлмон, Томми Флэнаган, Джозеф Рай, Агат Де Ла Булае, Карстен Норгаард, Сэм Тротон
Описание: Наши дни. Группа ученых отправляется в Антарктиду, чтобы отыскать колыбель цивилизации, царившей на Земле многие тысячелетия назад. Под толщей льда они находят пирамиды, в которых обнаруживают человеческие скелеты и следы жизнедеятельности чужих.
Однако они еще не знают, что уже находятся под колпаком у хозяев этого города — хищников, и их дни сочтены. Человеческая приманка поможет хищникам, наконец, завершить войну двух космических цивилизаций…
Качество: BDRip
Формат: *.m4v
Видео кодек: H.264
аудио кодек: ААС
Разрешение: 720x320
Другие параметры видео: AVC at 1200 Кбит/сек, 720 x 320 (2.250) at 23.976 fps
Аудио: AAC at 128 Кбит/сек, 2 канала, 48,0 КГц
Вшитая обложка: есть
Доп. теги (режиссёр, актёры и т.д.): прописаны
Телешоу/видеоклип : не требуется
Главы: прописаны
Серия/сезон: не требуется
MediaInfo
Общее
Полное имя : F:\Predator Collection\AVP.m4v
Формат : MPEG-4
Профиль формата : Base Media / Version 2
Идентификатор кодека : mp42
Размер файла : 1,21 Гбайт
Продолжительность : 1 ч. 48 м.
Режим общего битрейта : Переменный
Общий поток : 1593 Кбит/сек
Название фильма : Alien VS Predator
Исполнитель : Пол У. С. Андерсон
Жанр : Action & Adventure
Дата записи : 2004-08-12
Дата кодирования : UTC 2012-02-26 10:19:12
Дата пометки : UTC 2012-02-26 14:34:15
Программа кодирования : HandBrake 0.9.5 2011010300
Обложка : Yes
iTunEXTC : mpaa|PG-13|300|
iTunMOVI : <?xml version="1.0" encoding="UTF-8"?> / <!DOCTYPE plist PUBLIC "-/Apple/DTD PLIST 1.0/EN" "http://www.apple.com/DTDs/PropertyList-1.0.dtd"> / <plist version="1.0"> / <dict> / <key>cast</key> / <array> / <dict> / <key>name</key> / <string>Санаа Лэтэн</string> / </dict> / <dict> / <key>name</key> / <string>Рауль Бова</string> / </dict> / <dict> / <key>name</key> / <string>Лэнс Хенриксен</string> / </dict> / </array> / <key>directors</key> / <array> / <dict> / <key>name</key> / <string>Пол У. С. Андерсон</string> / </dict> / </array> / <key>producers</key> / <array> / <dict> / <key>name</key> / <string>Гордон Кэрролл</string> / </dict> / <dict> / <key>name</key> / <string>Джон Дэвис</string> / </dict> / <dict> / <key>name</key> / <string>Дэвид Гайлер</string> / </dict> / </array> / <key>screenwriters</key> / <array> / <dict> / <key>name</key> / <string>Дэн О’Бэннон</string> / </dict> / <dict> / <key>name</key> / <string>Рональд Шусетт</string> / </dict> / <dict> / <key>name</key> / <string>Пол У. С. Андерсон</string> / </dict> / </array> / </dict> / </plist>
desc : Группа ученых отправляется в Антарктиду, чтобы исследовать природу таинственного теплового сигнала, исходящего из-под толщи ледяного покрова.
ldes : Группа ученых отправляется в Антарктиду, чтобы исследовать природу таинственного теплового сигнала, исходящего из-под толщи ледяного покрова. Однако они и не догадываются об истинном назначении места, которое скрывается под землей. Тысячелетиями подземный город служил местом тренировок инопланетных воинов...
stik : 9
Видео
Идентификатор : 1
Формат : AVC
Формат/Информация : Advanced Video Codec
Профиль формата : [email protected]
Параметр CABAC формата : Нет
Параметр ReFrames формата : 2 кадра
Параметр GOP формата : N=1
Идентификатор кодека : avc1
Идентификатор кодека/Информация : Advanced Video Coding
Продолжительность : 1 ч. 48 м.
Вид битрейта : Переменный
Битрейт : 1200 Кбит/сек
Ширина : 720 пикселей
Высота : 320 пикселей
Соотношение сторон : 2,25:1
Режим частоты кадров : Переменный
Частота кадров : 23,976 кадра/сек
Минимальная частота кадров : 23,810 кадра/сек
Максимальная частота кадров : 24,390 кадра/сек
Цветовое пространство : YUV
Субдискретизация насыщенности : 4:2:0
Битовая глубина : 8 бит
Тип развёртки : Прогрессивная
Бит/(Пиксели*Кадры) : 0.217
Размер потока : 933 Мбайт (75%)
Библиотека кодирования : x264 core 112
Настройки программы : cabac=0 / ref=2 / deblock=1:0:0 / analyse=0x1:0x111 / me=umh / subme=7 / psy=1 / psy_rd=1.00:0.00 / mixed_ref=1 / me_range=16 / chroma_me=1 / trellis=0 / 8x8dct=0 / cqm=0 / deadzone=21,11 / fast_pskip=1 / chroma_qp_offset=-2 / threads=6 / sliced_threads=0 / nr=0 / decimate=1 / interlaced=0 / constrained_intra=0 / bframes=0 / weightp=0 / keyint=240 / keyint_min=23 / scenecut=40 / intra_refresh=0 / rc_lookahead=40 / rc=2pass / mbtree=1 / bitrate=1200 / ratetol=1.0 / qcomp=0.60 / qpmin=3 / qpmax=51 / qpstep=4 / cplxblur=20.0 / qblur=0.5 / ip_ratio=1.40 / aq=1:1.00
Дата кодирования : UTC 2012-02-26 10:19:12
Дата пометки : UTC 2012-02-26 11:10:40
Основные цвета : BT.709-5, BT.1361, IEC 61966-2-4, SMPTE RP177
Характеристики трансфера : BT.709-5, BT.1361
Коэффициенты матрицы : BT.709-5, BT.1361, IEC 61966-2-4 709, SMPTE RP177
Аудио #1
Идентификатор : 2
Формат : AAC
Формат/Информация : Advanced Audio Codec
Профиль формата : LC
Идентификатор кодека : 40
Продолжительность : 1 ч. 48 м.
Вид битрейта : Переменный
Битрейт : 128 Кбит/сек
Максимальный битрейт : 249 Кбит/сек
Каналы : 2 канала
Расположение каналов : Front: L R
Частота : 48,0 КГц
Метод сжатия : С потерями
Размер потока : 99,5 Мбайт (8%)
Язык : Russian
Дата кодирования : UTC 2012-02-26 10:19:13
Дата пометки : UTC 2012-02-26 11:10:40
Аудио #2
Идентификатор : 3
Формат : AAC
Формат/Информация : Advanced Audio Codec
Профиль формата : LC
Идентификатор кодека : 40
Продолжительность : 1 ч. 48 м.
Вид битрейта : Переменный
Битрейт : 128 Кбит/сек
Максимальный битрейт : 273 Кбит/сек
Каналы : 2 канала
Расположение каналов : Front: L R
Частота : 48,0 КГц
Метод сжатия : С потерями
Размер потока : 99,4 Мбайт (8%)
Язык : Russian
Дата кодирования : UTC 2012-02-26 10:19:13
Дата пометки : UTC 2012-02-26 11:10:40
Аудио #3
Идентификатор : 4
Формат : AAC
Формат/Информация : Advanced Audio Codec
Профиль формата : LC
Идентификатор кодека : 40
Продолжительность : 1 ч. 48 м.
Вид битрейта : Переменный
Битрейт : 128 Кбит/сек
Максимальный битрейт : 249 Кбит/сек
Каналы : 2 канала
Расположение каналов : Front: L R
Частота : 48,0 КГц
Метод сжатия : С потерями
Размер потока : 99,5 Мбайт (8%)
Язык : English
Дата кодирования : UTC 2012-02-26 10:19:13
Дата пометки : UTC 2012-02-26 11:10:40
Текст #1
Идентификатор : 5
Формат : Timed text
Режим смешивания : sbtl
Идентификатор кодека : tx3g
Продолжительность : 1 ч. 20 м.
Вид битрейта : Переменный
Битрейт : 7 бит/сек
Размер потока : 3,92 Кбайт (0%)
Язык : Russian
Дата кодирования : UTC 2012-02-26 10:19:13
Дата пометки : UTC 2012-02-26 10:57:35
Текст #2
Идентификатор : 6
Формат : Timed text
Режим смешивания : sbtl
Идентификатор кодека : tx3g
Продолжительность : 1 ч. 48 м.
Вид битрейта : Переменный
Битрейт : 41 бит/сек
Размер потока : 32,5 Кбайт (0%)
Язык : Russian
Дата кодирования : UTC 2012-02-26 10:19:13
Дата пометки : UTC 2012-02-26 11:10:39
Текст #3
Идентификатор : 7
Формат : Timed text
Режим смешивания : sbtl
Идентификатор кодека : tx3g
Продолжительность : 1 ч. 32 м.
Вид битрейта : Переменный
Битрейт : 31 бит/сек
Размер потока : 21,1 Кбайт (0%)
Язык : English
Дата кодирования : UTC 2012-02-26 10:19:13
Дата пометки : UTC 2012-02-26 11:04:00
Текст #4
Идентификатор : 8
Формат : Apple text
Идентификатор кодека : text
Продолжительность : 1 ч. 48 м.
Вид битрейта : Переменный
Битрейт : 1 бит/сек
Размер потока : 759 байт (0%)
Дата кодирования : UTC 2012-02-26 10:19:13
Дата пометки : UTC 2012-02-26 11:10:40

Скриншоты

Чужие против Хищника: Реквием / Aliens VS Predator Requiem

Год выпуска: 2007
Страна: США
Жанр: фантастика, боевик, триллер, приключения
Продолжительность: 01:41:06
Перевод : Профессиональный (полное дублирование)
Русские субтитры: есть
Режиссёр: Колин Штраус, Грег Штраус / Colin Strause, Greg Strause
В ролях: Стивен Паскуале, Рейко Эйлсворт, Джон Ортиз, Джонни Льюис, Эриель Гейд, Кристен Хагер, Сэм Траммелл, Роберт Джой, Дэвид Петкау, Том Вудрафф мл.
Описание: Атакованный «Предалиеном», жутким гибридом Хищника и Чужого, корабль Хищников терпит крушение в лесах, окружающих маленький техасский городок. И пока на сигнал о помощи, посланный в момент падения, спешит подкрепление, Чужие успевают инфицировать половину населения города.
Качество: BDRip
Формат: *.m4v
Видео кодек: H.264
аудио кодек: ААС
Разрешение: 720x320
Другие параметры видео: AVC at 1200 Кбит/сек, 720 x 320 (2.250) at 23.976 fps
Аудио: AAC at 128 Кбит/сек, 2 канала, 48,0 КГц
Вшитая обложка: есть
Доп. теги (режиссёр, актёры и т.д.): прописаны
Телешоу/видеоклип : не требуется
Главы: нет
Серия/сезон: не требуется
MediaInfo
Общее
Полное имя : F:\Predator Collection\AVP Requiem.m4v
Формат : MPEG-4
Профиль формата : Base Media / Version 2
Идентификатор кодека : mp42
Размер файла : 1,03 Гбайт
Продолжительность : 1 ч. 41 м.
Режим общего битрейта : Переменный
Общий поток : 1461 Кбит/сек
Название фильма : Aliens VS Predator: Requiem
Исполнитель : Колин Штраус, Грег Штраус
Жанр : Horror
Дата записи : 2007-12-25
Дата кодирования : UTC 2012-02-26 14:50:10
Дата пометки : UTC 2012-02-26 16:17:24
Программа кодирования : HandBrake 0.9.5 2011010300
Обложка : Yes
iTunEXTC : mpaa|R|400|
iTunMOVI : <?xml version="1.0" encoding="UTF-8"?> / <!DOCTYPE plist PUBLIC "-/Apple/DTD PLIST 1.0/EN" "http://www.apple.com/DTDs/PropertyList-1.0.dtd"> / <plist version="1.0"> / <dict> / <key>cast</key> / <array> / <dict> / <key>name</key> / <string>Стивен Паскуале</string> / </dict> / <dict> / <key>name</key> / <string>Рейко Эйлсворт</string> / </dict> / <dict> / <key>name</key> / <string>Джон Ортиз</string> / </dict> / </array> / <key>directors</key> / <array> / <dict> / <key>name</key> / <string>Колин Штраус</string> / </dict> / <dict> / <key>name</key> / <string>Грег Штраус</string> / </dict> / </array> / <key>producers</key> / <array> / <dict> / <key>name</key> / <string>Робби Бреннер</string> / </dict> / <dict> / <key>name</key> / <string>Джон Дэвис</string> / </dict> / <dict> / <key>name</key> / <string>Пол Дисон</string> / </dict> / </array> / <key>screenwriters</key> / <array> / <dict> / <key>name</key> / <string>Шейн Салерно</string> / </dict> / <dict> / <key>name</key> / <string>Дэн О’Бэннон</string> / </dict> / <dict> / <key>name</key> / <string>Рональд Шусетт</string> / </dict> / </array> / </dict> / </plist>
desc : Атакованный «Предалиеном», жутким гибридом Хищника и Чужого, корабль Хищников терпит крушение в лесах, окружающих маленький техасский городок.
ldes : Атакованный «Предалиеном», жутким гибридом Хищника и Чужого, корабль Хищников терпит крушение в лесах, окружающих маленький техасский городок. И пока на сигнал о помощи, посланный в момент падения, спешит подкрепление, Чужие успевают инфицировать половину населения города.
stik : 9
Видео
Идентификатор : 1
Формат : AVC
Формат/Информация : Advanced Video Codec
Профиль формата : [email protected]
Параметр CABAC формата : Нет
Параметр ReFrames формата : 2 кадра
Идентификатор кодека : avc1
Идентификатор кодека/Информация : Advanced Video Coding
Продолжительность : 1 ч. 41 м.
Вид битрейта : Переменный
Битрейт : 1200 Кбит/сек
Ширина : 720 пикселей
Высота : 320 пикселей
Соотношение сторон : 2,25:1
Режим частоты кадров : Переменный
Частота кадров : 23,976 кадра/сек
Минимальная частота кадров : 23,810 кадра/сек
Максимальная частота кадров : 24,390 кадра/сек
Цветовое пространство : YUV
Субдискретизация насыщенности : 4:2:0
Битовая глубина : 8 бит
Тип развёртки : Прогрессивная
Бит/(Пиксели*Кадры) : 0.217
Размер потока : 867 Мбайт (82%)
Библиотека кодирования : x264 core 112
Настройки программы : cabac=0 / ref=2 / deblock=1:0:0 / analyse=0x1:0x111 / me=umh / subme=7 / psy=1 / psy_rd=1.00:0.00 / mixed_ref=1 / me_range=16 / chroma_me=1 / trellis=0 / 8x8dct=0 / cqm=0 / deadzone=21,11 / fast_pskip=1 / chroma_qp_offset=-2 / threads=6 / sliced_threads=0 / nr=0 / decimate=1 / interlaced=0 / constrained_intra=0 / bframes=0 / weightp=0 / keyint=240 / keyint_min=23 / scenecut=40 / intra_refresh=0 / rc_lookahead=40 / rc=2pass / mbtree=1 / bitrate=1200 / ratetol=1.0 / qcomp=0.60 / qpmin=3 / qpmax=51 / qpstep=4 / cplxblur=20.0 / qblur=0.5 / ip_ratio=1.40 / aq=1:1.00
Дата кодирования : UTC 2012-02-26 14:50:11
Дата пометки : UTC 2012-02-26 15:25:30
Основные цвета : BT.709-5, BT.1361, IEC 61966-2-4, SMPTE RP177
Характеристики трансфера : BT.709-5, BT.1361
Коэффициенты матрицы : BT.709-5, BT.1361, IEC 61966-2-4 709, SMPTE RP177
Аудио #1
Идентификатор : 2
Формат : AAC
Формат/Информация : Advanced Audio Codec
Профиль формата : LC
Идентификатор кодека : 40
Продолжительность : 1 ч. 41 м.
Вид битрейта : Переменный
Битрейт : 128 Кбит/сек
Максимальный битрейт : 239 Кбит/сек
Каналы : 2 канала
Расположение каналов : Front: L R
Частота : 48,0 КГц
Метод сжатия : С потерями
Размер потока : 92,5 Мбайт (9%)
Язык : Russian
Дата кодирования : UTC 2012-02-26 14:50:11
Дата пометки : UTC 2012-02-26 15:25:30
Аудио #2
Идентификатор : 3
Формат : AAC
Формат/Информация : Advanced Audio Codec
Профиль формата : LC
Идентификатор кодека : 40
Продолжительность : 1 ч. 41 м.
Вид битрейта : Переменный
Битрейт : 128 Кбит/сек
Максимальный битрейт : 238 Кбит/сек
Каналы : 2 канала
Расположение каналов : Front: L R
Частота : 48,0 КГц
Метод сжатия : С потерями
Размер потока : 92,5 Мбайт (9%)
Язык : English
Дата кодирования : UTC 2012-02-26 14:50:11
Дата пометки : UTC 2012-02-26 15:25:30
Текст #1
Идентификатор : 4
Формат : Timed text
Режим смешивания : sbtl
Идентификатор кодека : tx3g
Продолжительность : 1 ч. 34 м.
Вид битрейта : Переменный
Битрейт : 45 бит/сек
Размер потока : 31,1 Кбайт (0%)
Язык : Russian
Дата кодирования : UTC 2012-02-26 14:50:11
Дата пометки : UTC 2012-02-26 15:24:18
Текст #2
Идентификатор : 5
Формат : Timed text
Режим смешивания : sbtl
Идентификатор кодека : tx3g
Продолжительность : 1 ч. 34 м.
Вид битрейта : Переменный
Битрейт : 31 бит/сек
Размер потока : 21,6 Кбайт (0%)
Язык : English
Дата кодирования : UTC 2012-02-26 14:50:11
Дата пометки : UTC 2012-02-26 15:24:18

Скриншоты

Хищники / Predators

Год выпуска: 2010
Страна: США
Жанр: фантастика, боевик, триллер, приключения
Продолжительность: 01:46:53
Перевод : Профессиональный (полное дублирование)
Русские субтитры: есть
Режиссёр: Нимрод Антал / Nimród Antal
В ролях: Эдриан Броуди, Тофер Грейс, Алиси Брага, Луис Одзава Чангчьен, Лоренс Фишбёрн, Уолтон Гоггинс, Олег Тактаров, Дэнни Трехо, Махершалалхашбаз Али, Кэри Джонс
Описание: Наемник Ройс невольно вынужден возглавить группу профессионалов, выполняющих загадочную миссию на неизвестной планете. За исключением опального доктора все они — хладнокровные убийцы: наемники, гангстеры, осужденные и участники отрядов смерти — людские «хищники». Но когда их начинает систематически преследовать и истреблять невообразимое чудовище, становится очевидно, что теперь они в роли своих жертв.
Качество: BDRip
Формат: *.m4v
Видео кодек: H.264
аудио кодек: ААС
Разрешение: 720x320
Другие параметры видео: AVC at 1200 Кбит/сек, 720 x 320 (2.250) at 23.976 fps
Аудио: AAC at 128 Кбит/сек, 2 канала, 48,0 КГц
Вшитая обложка: есть
Доп. теги (режиссёр, актёры и т.д.): прописаны
Телешоу/видеоклип : не требуется
Главы: нет
Серия/сезон: не требуется
MediaInfo
Общее
Полное имя : F:\Predator Collection\Predators.m4v
Формат : MPEG-4
Профиль формата : Base Media / Version 2
Идентификатор кодека : mp42
Размер файла : 1,09 Гбайт
Продолжительность : 1 ч. 46 м.
Режим общего битрейта : Переменный
Общий поток : 1462 Кбит/сек
Название фильма : Predators
Исполнитель : Нимрод Антал
Жанр : Action & Adventure
Дата записи : 2010-07-07
Дата кодирования : UTC 2012-02-27 05:51:36
Дата пометки : UTC 2012-02-27 13:36:03
Программа кодирования : HandBrake 0.9.5 2011010300
Обложка : Yes
iTunEXTC : mpaa|R|400|
iTunMOVI : <?xml version="1.0" encoding="UTF-8"?> / <!DOCTYPE plist PUBLIC "-/Apple/DTD PLIST 1.0/EN" "http://www.apple.com/DTDs/PropertyList-1.0.dtd"> / <plist version="1.0"> / <dict> / <key>cast</key> / <array> / <dict> / <key>name</key> / <string>Эдриан Броуди</string> / </dict> / <dict> / <key>name</key> / <string>Тофер Грейс</string> / </dict> / <dict> / <key>name</key> / <string>Алиси Брага</string> / </dict> / </array> / <key>directors</key> / <array> / <dict> / <key>name</key> / <string>Нимрод Антал</string> / </dict> / </array> / <key>producers</key> / <array> / <dict> / <key>name</key> / <string>Элизабет Авеллан</string> / </dict> / <dict> / <key>name</key> / <string>Джон Дэвис</string> / </dict> / <dict> / <key>name</key> / <string>Роберт Родригес</string> / </dict> / </array> / <key>screenwriters</key> / <array> / <dict> / <key>name</key> / <string>Алекс Литвак</string> / </dict> / <dict> / <key>name</key> / <string>Майкл Финч</string> / </dict> / <dict> / <key>name</key> / <string>Джим Томас</string> / </dict> / </array> / </dict> / </plist>
desc : Группа из восьмерых, никак между собой не связанных, вооружённых людей оказываются в джунглях, причем, не на Земле. Сюда инопланетене привозят людей для своей кровавой охоты.
ldes : Группа из восьмерых, никак между собой не связанных, вооружённых людей оказываются в джунглях, причем, не на Земле. Сюда инопланетяне привозят людей для своей кровавой охоты.
stik : 9
Видео
Идентификатор : 1
Формат : AVC
Формат/Информация : Advanced Video Codec
Профиль формата : [email protected]
Параметр CABAC формата : Нет
Параметр ReFrames формата : 2 кадра
Идентификатор кодека : avc1
Идентификатор кодека/Информация : Advanced Video Coding
Продолжительность : 1 ч. 46 м.
Вид битрейта : Переменный
Битрейт : 1200 Кбит/сек
Ширина : 720 пикселей
Высота : 320 пикселей
Соотношение сторон : 2,25:1
Режим частоты кадров : Переменный
Частота кадров : 23,976 кадра/сек
Минимальная частота кадров : 23,810 кадра/сек
Максимальная частота кадров : 24,390 кадра/сек
Цветовое пространство : YUV
Субдискретизация насыщенности : 4:2:0
Битовая глубина : 8 бит
Тип развёртки : Прогрессивная
Бит/(Пиксели*Кадры) : 0.217
Размер потока : 917 Мбайт (82%)
Библиотека кодирования : x264 core 112
Настройки программы : cabac=0 / ref=2 / deblock=1:0:0 / analyse=0x1:0x111 / me=umh / subme=7 / psy=1 / psy_rd=1.00:0.00 / mixed_ref=1 / me_range=16 / chroma_me=1 / trellis=0 / 8x8dct=0 / cqm=0 / deadzone=21,11 / fast_pskip=1 / chroma_qp_offset=-2 / threads=6 / sliced_threads=0 / nr=0 / decimate=1 / interlaced=0 / constrained_intra=0 / bframes=0 / weightp=0 / keyint=240 / keyint_min=23 / scenecut=40 / intra_refresh=0 / rc_lookahead=40 / rc=2pass / mbtree=1 / bitrate=1200 / ratetol=1.0 / qcomp=0.60 / qpmin=3 / qpmax=51 / qpstep=4 / cplxblur=20.0 / qblur=0.5 / ip_ratio=1.40 / aq=1:1.00
Дата кодирования : UTC 2012-02-27 05:51:36
Дата пометки : UTC 2012-02-27 06:27:27
Основные цвета : BT.709-5, BT.1361, IEC 61966-2-4, SMPTE RP177
Характеристики трансфера : BT.709-5, BT.1361
Коэффициенты матрицы : BT.709-5, BT.1361, IEC 61966-2-4 709, SMPTE RP177
Аудио #1
Идентификатор : 2
Формат : AAC
Формат/Информация : Advanced Audio Codec
Профиль формата : LC
Идентификатор кодека : 40
Продолжительность : 1 ч. 46 м.
Вид битрейта : Переменный
Битрейт : 128 Кбит/сек
Максимальный битрейт : 171 Кбит/сек
Каналы : 2 канала
Расположение каналов : Front: L R
Частота : 48,0 КГц
Метод сжатия : С потерями
Размер потока : 97,8 Мбайт (9%)
Язык : Russian
Дата кодирования : UTC 2012-02-27 05:51:36
Дата пометки : UTC 2012-02-27 06:27:27
Аудио #2
Идентификатор : 3
Формат : AAC
Формат/Информация : Advanced Audio Codec
Профиль формата : LC
Идентификатор кодека : 40
Продолжительность : 1 ч. 46 м.
Вид битрейта : Переменный
Битрейт : 128 Кбит/сек
Максимальный битрейт : 245 Кбит/сек
Каналы : 2 канала
Расположение каналов : Front: L R
Частота : 48,0 КГц
Метод сжатия : С потерями
Размер потока : 97,8 Мбайт (9%)
Язык : English
Дата кодирования : UTC 2012-02-27 05:51:36
Дата пометки : UTC 2012-02-27 06:27:27
Текст #1
Идентификатор : 4
Формат : Timed text
Режим смешивания : sbtl
Идентификатор кодека : tx3g
Продолжительность : 1 ч. 40 м.
Вид битрейта : Переменный
Битрейт : 35 бит/сек
Размер потока : 25,7 Кбайт (0%)
Язык : Russian
Дата кодирования : UTC 2012-02-27 05:51:36
Дата пометки : UTC 2012-02-27 06:26:23
Текст #2
Идентификатор : 5
Формат : Timed text
Режим смешивания : sbtl
Идентификатор кодека : tx3g
Продолжительность : 1 ч. 46 м.
Вид битрейта : Переменный
Битрейт : 27 бит/сек
Размер потока : 21,0 Кбайт (0%)
Язык : English
Дата кодирования : UTC 2012-02-27 05:51:36
Дата пометки : UTC 2012-02-27 06:27:27
Текст #3
Идентификатор : 6
Формат : Apple text
Идентификатор кодека : text
Продолжительность : 1 ч. 46 м.
Вид битрейта : Переменный
Битрейт : 1 бит/сек
Размер потока : 663 байт (0%)
Дата кодирования : UTC 2012-02-27 05:51:36
Дата пометки : UTC 2012-02-27 06:27:27

Скриншоты



Вернуться к началу
 Профиль Отправить личное сообщение  
 
   Похожие торренты   Автор   Торрент   Размер 
В этой теме нет новых непрочитанных сообщений. Хищник / Predator [фантастика, боевик, приключения, 1987] BDRip-AVC, Dub+Mvo+Avo+Sub

salma3

103 | 58

2.18 ГБ

В этой теме нет новых непрочитанных сообщений. Хищник / Predator [фантастика, боевик, триллер, 1987] BDRip 1080p, Dub+Mvo+Dvo+Avo+Sub

salma3

65 | 24

12.38 ГБ

В этой теме нет новых непрочитанных сообщений. Хищник / Predator [Фантастика, боевик, приключения, 1987] BDRemux 1080p, Dub

salma3

0 | 0

32.53 ГБ

В этой теме нет новых непрочитанных сообщений. Хищник / Predator [фантастика, боевик, 1987] WEB-DL 1080p, Dub [Open Matte]

salma3

61 | 21

18.06 ГБ

В этой теме нет новых непрочитанных сообщений. Хищник / Predator [фантастика, боевик, 1987] WEB-DLRip-AVC, Dub [Open Matte]

salma3

7 | 1

3.29 ГБ

В этой теме нет новых непрочитанных сообщений. Хищник / Predator [фантастика, боевик, 1987] WEB-DLRip-AVC, Dub [Open Matte]

salma3

17 | 0

2.36 ГБ

В этой теме нет новых непрочитанных сообщений. Хищник 2 / Predator 2 [ужасы, фантастика, боевик, триллер, 1990] BDRip 1080p, Dub+Mvo+Dvo+Avo+Sub

salma3

44 | 17

12.42 ГБ


Начать новую тему Ответить на тему  [ 1 сообщение ] 




Для Мосгорсуда, Роскомнадзора и рекламодателей:: mosgorsud-torrent[собачка]yandex.ru
cron