Торрент файл
скачать торрент магнет ссылка Добавлен: 05 янв 2013, 22:48
Размер: 440 МБ
Сидеров: 0
Личеров: 3
Автор

СообщениеДобавлено: 05 янв 2013, 22:48 

Не в сети
Супермодератор
Аватара пользователя
Дата регистрации:
11 апр 2010, 18:10
Спасибо: 5995 / 7
Сообщения: 56685
id="p-25224744-1"> Гараж
Страна:
Год выпуска: 1979
Жанр: Комедия
Продолжительность: 01:35:35
Язык: Русский
Субтитры: нет
[url=http://www.kinopoisk.ru/level/1/film/44467/[/url][/url] 8.140
8.4/10
Режиссер:

Эльдар Рязанов
В ролях:
Лия Ахеджакова — Малаева, Борислав Брондуков — жених, Георгий Бурков — Фетисов, Мария Виноградова — женщина с курицей, Анастасия Вознесенская — Кушакова, директор рынка, «блатная» №1, Валентин Гафт — Сидорин, председатель правления гаражного кооператива, Наталья Гурзо — Наташа, Вадим Захарченко — мужчина в очках, Михаил Кокшенов, Игорь Костолевский — сын Милосердова, «блатной» №2, Леонид Марков — профессор Смирновский, Андрей Мягков — Хвостов, Вячеслав Невинный — Карпухин, Светлана Немоляева — жена Гуськова, Ольга Остроумова — Марина, дочь профессора Смирновского, Эльдар Рязанов — начальник отдела насекомых, спящий человек, Ия Саввина — Аникеева, член правления гаражного кооператива, Глеб Стриженов — Якубов, Пётр Щербаков — Муж Аникеевой, Семён Фарада — тромбонист, Алла Будницкая — секретарь, Вячеслав Войнаровский — Толстяк ...
Описание:
Безусловный шедевр мастера комедии. Удивительная, горькая, местами страшная и в то же время очень смешная (смех сквозь слезы) драма о собрании гаражного кооператива, на котором нескольких законных членов должны исключить, чтобы дать боксы нужным людям. Глубокое психологическое исследование человеческой природы со всеми ее плюсами и минусами. Творческое объединение музыкальных и комедийных фильмов. Впрочем, пересказать это невозомжно: смотрите сами, не пожалеете...
Действие происходит в СССР, приблизительно в 1970—1980-е годы в вымышленном НИИ «Охраны животных от окружающей среды». Сотрудники института организовали гаражный кооператив «Фауна» и сюжет фильма посвящён ночному заседанию членов кооператива. По территории, где идёт строительство, должно пройти скоростное шоссе, в связи с чем необходимо сократить количество гаражей. На заседании пайщиков предстоит выбрать четырёх «крайних».
Голосование «списком» прошло бы гладко и больной вопрос удалось решить, если бы не вмешательство одной из пайщиц кооператива — младшего научного сотрудника института Малаевой. Она решила, что правление поступило несправедливо и за каждого исключаемого из кооператива нужно голосовать отдельно. Ко всему прочему оказывается, что кто-то из участников собрания похитил ключ, запер дверь и никто не может покинуть помещение. Раздражённым участникам затянувшегося собрания поневоле приходится выслушать предложение Малаевой и продолжить заседание. Разбирательство с деятельностью правления приводит к тому что на свет выходят неприглядные факты. В состав кооператива были приняты «блатные» — люди ставшие пайщиками кооператива за взятку, или по протекции...
Киноляпы
«Сын товарища Милосердова» весь фильм одет в коричневый пиджак, но в эпизоде, где героиня Лии Ахеджаковой произносит фразу «Ну я, я заперла дверь!», он несколько раз появляется в светлом плаще.
Когда Хвостов сжигал бумаги в раковине, никто не почувствовал запах дыма.
Качество:
Формат: MP4
Видео кодек: H.264
Аудио кодек: AAC
Видео: 480x360, 512 Kbps, 25.000 fps
Аудио: AAC LC, Variable,128 Kbps, 48.0 KHz, 2 channels
Скриншоты

Скриншоты (хронометраж)

Тех. данные

General
Complete name : Garazh.(rus DVDRip).mp4
Format : MPEG-4
Format profile : Base Media
Codec ID : isom
File size : 440 MiB
Duration : 1h 35mn
Overall bit rate : 643 Kbps
Encoded date : UTC 2009-06-27 03:18:22
Tagged date : UTC 2009-06-27 03:18:22
Video
Format : AVC
Format/Info : Advanced Video Codec
Format profile : [email protected]
Format settings, CABAC : No
Format settings, ReFrames : 6 frames
Codec ID : avc1
Codec ID/Info : Advanced Video Coding
Duration : 1h 35mn
Bit rate mode : Variable
Bit rate : 512 Kbps
Maximum bit rate : 1 119 Kbps
Width : 480 pixels
Height : 360 pixels
Display aspect ratio : 4/3
Frame rate mode : Constant
Frame rate : 23.976 fps
Resolution : 24 bits
Colorimetry : 4:2:0
Scan type : Progressive
Bits/(Pixel*Frame) : 0.124
Stream size : 350 MiB (80%)
Writing library : x264 core 65 r999kMod cc51047
Encoding settings : cabac=0 / ref=6 / deblock=1:-2:-1 / analyse=0x1:0x131 / me=umh / subme=7 / psy_rd=1.0:0.0 / mixed_ref=1 / me_range=16 / chroma_me=1 / trellis=0 / 8x8dct=0 / cqm=0 / deadzone=21,11 / chroma_qp_offset=-2 / threads=2 / thread_queue=2 / nr=0 / decimate=0 / mbaff=0 / bframes=0 / keyint=250 / keyint_min=25 / scenecut=40(pre) / rc=2pass / bitrate=512 / ratetol=1.0 / qcomp=0.60 / qpmin=10 / qpmax=51 / qpstep=4 / cplxblur=20.0 / qblur=0.5 / ip_ratio=1.40 / aq=1:1.00
Encoded date : UTC 2009-06-27 03:18:22
Tagged date : UTC 2009-06-27 03:18:36
Audio
Format : AAC
Format/Info : Advanced Audio Codec
Format version : Version 4
Format profile : LC
Format settings, SBR : No
Codec ID : 40
Duration : 1h 35mn
Bit rate mode : Variable
Bit rate : 129 Kbps
Maximum bit rate : 149 Kbps
Channel(s) : 2 channels
Channel positions : L R
Sampling rate : 48.0 KHz
Resolution : 16 bits
Stream size : 88.2 MiB (20%)
Encoded date : UTC 2009-06-27 03:18:33
Tagged date : UTC 2009-06-27 03:18:36
Пожалуйста внимание!



Вернуться к началу
 Профиль Отправить личное сообщение  
 
   Похожие торренты   Автор   Торрент   Размер 
В этой теме нет новых непрочитанных сообщений. За спичками [комедия, 1979] DVDRip

salma3

93 | 29

1.46 ГБ

В этой теме нет новых непрочитанных сообщений. Мусорная охота / Scavenger Hunt [комедия, 1979] DVDRip, Avo

salma3

42 | 15

1.46 ГБ

В этой теме нет новых непрочитанных сообщений. Суббота, воскресенье и пятница / Saboto, domenica e venerdi [Комедия, 1979] DVDRip-AVC, Mvo

salma3

120 | 58

4.36 ГБ

В этой теме нет новых непрочитанных сообщений. Доктор Джекилл и милая дама / Dottor Jekyll e gentile signora [комедия, 1979] DVDRip-AVC, Avo

salma3

127 | 41

1.46 ГБ

В этой теме нет новых непрочитанных сообщений. Полицейская в отделе нравов / La poliziotta della squadra del buon costume [комедия, криминал, 1979] DVDRip, Avo

salma3

184 | 82

1.48 ГБ

В этой теме нет новых непрочитанных сообщений. Будучи там / Being There [Драма, Комедия, 1979] BDRemux 1080p, Dub

salma3

0 | 0

27.79 ГБ

В этой теме нет новых непрочитанных сообщений. Будучи там / Being There [Драма, Комедия, 1979] BDRip 720p, Dub

salma3

0 | 0

4.31 ГБ


Начать новую тему Ответить на тему  [ 1 сообщение ] 




Для Мосгорсуда, Роскомнадзора и рекламодателей:: mosgorsud-torrent[собачка]yandex.ru
cron