Торрент файл
скачать торрент магнет ссылка Добавлен: 05 янв 2013, 22:47
Размер: 3.32 ГБ
Сидеров: 1
Личеров: 3
Автор

СообщениеДобавлено: 05 янв 2013, 22:47 

Не в сети
Супермодератор
Аватара пользователя
Дата регистрации:
11 апр 2010, 18:10
Спасибо: 5996 / 7
Сообщения: 56684
id="p-25224744-1">
Невероятный Халк / The Incredible Hulk«В гневе он Вам не понравится!»


Страна: США
Жанр: фантастика, боевик, триллер
Год выпуска: 2008
Продолжительность: 01:52:14

Перевод #1: Профессиональный (полное дублирование)
Перевод #2: Профессиональный (многоголосый закадровый)
Перевод #3: Авторский (одноголосый закадровый) Гаврилов

Оригинальная аудиодорожка: Английский
Cубтитры: Русские (форсированные), Русские (полные), Английские
Режиссер: Луи Летерье / Louis Leterrier

В ролях: Эдвард Нортон (Bruce Banner), Лив Тайлер (Betty Ross), Тим Рот (Emil Blonsky), Уильям Хёрт (General 'Thunderbolt' Ross), Тим Блейк Нельсон (Samuel Sterns), Тай Бурелл (Leonard), Кристина Кэбот (Major Kathleen Sparr), Питер Менса (General Joe Greller), Лу Ферриньо (The Incredible Hulk / Security Guard, озвучка), Пол Соулз (Stanley), Дебора Наскименто (Martina), Грег Брайк (Commando)
Дублёры: Илья Бледный (Bruce Banner), Ольга Голованова (Betty Ross), Сергей Бурунов (Emil Blonsky), Александр Новиков (General 'Thunderbolt' Ross), Сергей Быстрицкий (Samuel Sterns), Андрей Казанцев (Leonard), Любовь Германова (Major Kathleen Sparr), Рудольф Панков (Stanley), Вячеслав Баранов (Medic Soldier), Юрий Деркач, Владимир Зайцев (Tony Stark)

Описание: История доктора Брюса Баннера, который ищет лекарство от своего необычного «заболевания», превращающего его во время эмоционального стресса в гигантского зеленого монстра Халка. Находясь в бегах от армии, стремящейся его захватить, Брюс почти находит лекарство, но все старания идут прахом, когда у Халка вдруг появляется новый, невероятно сильный противник.
Рейтинг
imdb.com: 7.00 (126 103)
MPAA: PG-13 - Детям до 13 лет просмотр не желателен
Качество видео: BDRip - Исходник BD Remux
Формат видео: m4v
Видео кодек: H.264
Аудио кодек: AAC
Видео: 1280х544 (2.35:1), 23,976 fps, H.264 3500 kbps avg, 0.210 bit/pixel
Аудио #1: Russian, 48,0 kHz, AAC LC, 2 ch, 180 kbps avg | DUB
Аудио #2: Russian, 48,0 kHz, AAC LC, 2 ch, 184 kbps avg | MVO
Аудио #3: Russian, 48,0 kHz, AAC LC, 2 ch, 177 kbps avg | MVO
Аудио #4: English, 48,0 kHz, AAC LC, 2 ch, 183 kbps avg | Original
MediaInfo
Код:
Код:
General
Complete name                            : C:\Новая папка\The.Incredible.Hulk.2008.BDRip.m4v
Format                                   : MPEG-4
Codec ID                                 : M4V
File size                                : 3.32 GiB
Duration                                 : 1h 52mn
Overall bit rate mode                    : Variable
Overall bit rate                         : 4 229 Kbps
Movie name                               : Невероятный Халк
Performer                                : Луи Летерье
Genre                                    : фантастика, боевик, триллер
Recorded date                            : UTC 2008-06-06 07:00:00
Encoded date                             : UTC 2012-02-26 16:13:35
Tagged date                              : UTC 2012-02-27 16:17:46
Writing application                      : MkvToMp4 [www.mkvtomp4.ru] version 0.218
Cover                                    : Yes
desc                                     : История доктора Брюса Баннера, который ищет лекарство от своего необычного «заболевания», превращающего его во время эмоционального стресса в гигантского зеленого монстра Халка.
ldes                                     : История доктора Брюса Баннера, который ищет лекарство от своего необычного «заболевания», превращающего его во время эмоционального стресса в гигантского зеленого монстра Халка. Находясь в бегах от армии, стремящейся его захватить, Брюс почти находит лекарство, но все старания идут прахом, когда у Халка вдруг появляется новый, невероятно сильный противник.
hdvd                                     : 1
stik                                     : 9
akID                                     : -1
sfID                                     : 0
cnID                                     : 284829497
xid                                      : iPad:vendor_id:2008-255380
iTunEXTC                                 : mpaa|PG-13|300|
iTunMOVI                                 : <?xml version="1.0" encoding="UTF-8"?> / <!DOCTYPE plist PUBLIC "-/Apple/DTD PLIST 1.0/EN" "http:/www.apple.com/DTDs/PropertyList-1.0.dtd"> / <plist version="1.0"> /  <dict> /   <key>cast</key> /   <array> /    <dict> /     <key>name</key> /     <string>Эдвард Нортон</string> /    </dict> /    <dict> /     <key>name</key> /     <string>Лив Тайлер</string> /    </dict> /    <dict> /     <key>name</key> /     <string>Тим Рот</string> /    </dict> /    <dict> /     <key>name</key> /     <string>Тим Блейк Нельсон</string> /    </dict> /    <dict> /     <key>name</key> /     <string>Ти Баррелл</string> /    </dict> /    <dict> /     <key>name</key> /     <string>Уильям Херт</string> /    </dict> /    <dict> /     <key>name</key> /     <string>Кристина Сабот</string> /    </dict> /    <dict> /     <key>name</key> /     <string>Питер Менса</string> /    </dict> /    <dict> /     <key>name</key> /     <string>Лу Ферриньо</string> /    </dict> /    <dict> /     <key>name</key> /     <string>Пол Соулз</string> /    </dict> /   </array> /   <key>directors</key> /   <array> /    <dict> /     <key>name</key> /     <string>Луи Летерье</string> /    </dict> /   </array> /   <key>producers</key> /   <array> /    <dict> /     <key>name</key> /     <string>Ави Арад</string> /    </dict> /    <dict> /     <key>name</key> /     <string>Кевин Файги</string> /    </dict> /    <dict> /     <key>name</key> /     <string>Гэйл Энн Херд</string> /    </dict> /   </array> /   <key>screenwriters</key> /   <array> /    <dict> /     <key>name</key> /     <string>Зак Пенн</string> /    </dict> /   </array> /  </dict> / </plist>
Video
ID                                       : 1
Format                                   : AVC
Format/Info                              : Advanced Video Codec
Format profile                           : [email protected]
Format settings, CABAC                   : Yes
Format settings, ReFrames                : 6 frames
Codec ID                                 : avc1
Codec ID/Info                            : Advanced Video Coding
Duration                                 : 1h 52mn
Bit rate                                 : 3 500 Kbps
Maximum bit rate                         : 10.8 Mbps
Width                                    : 1 280 pixels
Height                                   : 544 pixels
Display aspect ratio                     : 2.35:1
Frame rate mode                          : Constant
Frame rate                               : 23.976 fps
Color space                              : YUV
Chroma subsampling                       : 4:2:0
Bit depth                                : 8 bits
Scan type                                : Progressive
Bits/(Pixel*Frame)                       : 0.210
Stream size                              : 2.74 GiB (83%)
Writing library                          : x264 core 119 r2106 07efeb4
Encoding settings                        : cabac=1 / ref=6 / deblock=1:-1:-1 / analyse=0x3:0x113 / me=umh / subme=9 / psy=1 / psy_rd=1.10:0.05 / mixed_ref=1 / me_range=36 / chroma_me=1 / trellis=1 / 8x8dct=1 / cqm=0 / deadzone=21,11 / fast_pskip=0 / chroma_qp_offset=-3 / threads=12 / sliced_threads=0 / nr=0 / decimate=0 / interlaced=0 / bluray_compat=0 / constrained_intra=0 / bframes=8 / b_pyramid=2 / b_adapt=2 / b_bias=0 / direct=3 / weightb=1 / open_gop=0 / weightp=2 / keyint=250 / keyint_min=23 / scenecut=40 / intra_refresh=0 / rc=2pass / mbtree=0 / bitrate=3500 / ratetol=1.0 / qcomp=0.60 / qpmin=0 / qpmax=69 / qpstep=4 / cplxblur=20.0 / qblur=0.5 / ip_ratio=1.40 / pb_ratio=1.30 / aq=2:1.00
Language                                 : English
Encoded date                             : UTC 2012-02-26 16:13:35
Tagged date                              : UTC 2012-02-26 16:15:05
Audio #1
ID                                       : 2
Format                                   : AAC
Format/Info                              : Advanced Audio Codec
Format profile                           : LC
Codec ID                                 : 40
Duration                                 : 1h 52mn
Bit rate mode                            : Variable
Bit rate                                 : 180 Kbps
Maximum bit rate                         : 243 Kbps
Channel(s)                               : 2 channels
Channel positions                        : Front: L R
Sampling rate                            : 48.0 KHz
Compression mode                         : Lossy
Stream size                              : 145 MiB (4%)
Title                                    : DUB
Language                                 : Russian
Encoded date                             : UTC 2012-02-26 16:14:07
Tagged date                              : UTC 2012-02-26 16:15:05
Audio #2
ID                                       : 3
Format                                   : AAC
Format/Info                              : Advanced Audio Codec
Format profile                           : LC
Codec ID                                 : 40
Duration                                 : 1h 52mn
Bit rate mode                            : Variable
Bit rate                                 : 184 Kbps
Maximum bit rate                         : 254 Kbps
Channel(s)                               : 2 channels
Channel positions                        : Front: L R
Sampling rate                            : 48.0 KHz
Compression mode                         : Lossy
Stream size                              : 147 MiB (4%)
Title                                    : MVO
Language                                 : Russian
Encoded date                             : UTC 2012-02-26 16:14:42
Tagged date                              : UTC 2012-02-26 16:15:05
Audio #3
ID                                       : 4
Format                                   : AAC
Format/Info                              : Advanced Audio Codec
Format profile                           : LC
Codec ID                                 : 40
Duration                                 : 1h 52mn
Bit rate mode                            : Variable
Bit rate                                 : 177 Kbps
Maximum bit rate                         : 251 Kbps
Channel(s)                               : 2 channels
Channel positions                        : Front: L R
Sampling rate                            : 48.0 KHz
Compression mode                         : Lossy
Stream size                              : 142 MiB (4%)
Title                                    : AVO (Gavrilov)
Language                                 : Russian
Encoded date                             : UTC 2012-02-26 16:14:53
Tagged date                              : UTC 2012-02-26 16:15:05
Audio #4
ID                                       : 5
Format                                   : AAC
Format/Info                              : Advanced Audio Codec
Format profile                           : LC
Codec ID                                 : 40
Duration                                 : 1h 52mn
Bit rate mode                            : Variable
Bit rate                                 : 183 Kbps
Maximum bit rate                         : 250 Kbps
Channel(s)                               : 2 channels
Channel positions                        : Front: L R
Sampling rate                            : 48.0 KHz
Compression mode                         : Lossy
Stream size                              : 147 MiB (4%)
Title                                    : Original
Language                                 : English
Encoded date                             : UTC 2012-02-26 16:14:59
Tagged date                              : UTC 2012-02-26 16:15:05
Text #1
ID                                       : 6
Format                                   : Timed text
Muxing mode                              : sbtl
Codec ID                                 : tx3g
Duration                                 : 1h 45mn
Bit rate mode                            : Variable
Bit rate                                 : 64 bps
Stream size                              : 49.4 KiB (0%)
Language                                 : Russian
Encoded date                             : UTC 2012-02-26 16:15:05
Tagged date                              : UTC 2012-02-26 16:15:05
Text #2
ID                                       : 7
Format                                   : Timed text
Muxing mode                              : sbtl
Codec ID                                 : tx3g
Duration                                 : 1h 52mn
Bit rate mode                            : Variable
Bit rate                                 : 8 bps
Stream size                              : 6.32 KiB (0%)
Language                                 : Russian
Encoded date                             : UTC 2012-02-26 16:15:05
Tagged date                              : UTC 2012-02-26 16:15:05
Text #3
ID                                       : 8
Format                                   : Timed text
Muxing mode                              : sbtl
Codec ID                                 : tx3g
Duration                                 : 1h 45mn
Bit rate mode                            : Variable
Bit rate                                 : 32 bps
Stream size                              : 24.8 KiB (0%)
Language                                 : English
Encoded date                             : UTC 2012-02-26 16:15:05
Tagged date                              : UTC 2012-02-26 16:15:05
Text #4
ID                                       : 9
Format                                   : Apple text
Codec ID                                 : text
Duration                                 : 1h 52mn
Bit rate mode                            : Constant
Bit rate                                 : 1 bps
Stream size                              : 540 Bytes (0%)
Encoded date                             : UTC 2012-02-27 16:17:40
Tagged date                              : UTC 2012-02-27 16:17:40

x264 log
Код:
Код:
x264 [info]: frame I:1457  Avg QP:16.42  size: 94997
x264 [info]: frame P:41255 Avg QP:19.22  size: 32769
x264 [info]: frame B:118743 Avg QP:20.97  size: 12231
x264 [info]: consecutive B-frames:  4.0%  5.8%  9.8% 30.9% 16.9% 25.2%  3.9%  2.3%  1.2%
x264 [info]: mb I  I16..4: 11.5% 69.1% 19.4%
x264 [info]: mb P  I16..4:  4.3% 14.6%  2.9%  P16..4: 38.3% 21.0% 11.7%  0.0%  0.0%    skip: 7.2%
x264 [info]: mb B  I16..4:  0.3%  1.5%  0.3%  B16..8: 42.5% 10.1%  2.9%  direct: 6.6%  skip:35.8%  L0:43.3% L1:46.7% BI:10.0%
x264 [info]: 8x8 transform intra:68.0% inter:63.4%
x264 [info]: direct mvs  spatial:97.7% temporal:2.3%
x264 [info]: coded y,uvDC,uvAC intra: 79.1% 85.6% 66.7% inter: 30.5% 37.0% 14.8%
x264 [info]: i16 v,h,dc,p: 40% 16%  9% 34%
x264 [info]: i8 v,h,dc,ddl,ddr,vr,hd,vl,hu:  8%  7%  3% 10% 16% 15% 16% 12% 13%
x264 [info]: i4 v,h,dc,ddl,ddr,vr,hd,vl,hu:  7%  7%  3% 10% 16% 15% 16% 12% 15%
x264 [info]: i8c dc,h,v,p: 46% 20% 17% 17%
x264 [info]: Weighted P-Frames: Y:16.2% UV:11.7%
x264 [info]: ref P L0: 50.4% 10.5% 18.7%  7.6%  6.8%  4.7%  1.1%  0.2%
x264 [info]: ref B L0: 77.8% 12.8%  6.2%  2.2%  1.1%
x264 [info]: ref B L1: 92.7%  7.3%
x264 [info]: kb/s:3495.83
encoded 161455 frames, 14.19 fps, 3495.84 kb/s

Скриншоты

Скриншоты с iPad




Вернуться к началу
 Профиль Отправить личное сообщение  
 
   Похожие торренты   Автор   Торрент   Размер 
В этой теме нет новых непрочитанных сообщений. Невероятный Халк / The Incredible Hulk [Фантастика, боевик, триллер, 2008] UHD Blu-Ray EUR 2160p, Dub [4K] [Лицензия]

salma3

0 | 0

57.62 ГБ

В этой теме нет новых непрочитанных сообщений. Невероятный Халк / The Incredible Hulk [Фантастика, боевик, триллер, 2008] UHD BDRemux 2160p, Dub [Лицензия]

salma3

1 | 4

59.7 ГБ

В этой теме нет новых непрочитанных сообщений. Халк / Hulk [фантастика, боевик, 2003] BDRemux 1080p, Dub

salma3

0 | 3

32.52 ГБ

В этой теме нет новых непрочитанных сообщений. Преступник / Criminal [фантастика, боевик, триллер, 2016] BDRip 720p, Dub [iPad] [Лицензия]

salma3

0 | 0

2.37 ГБ

В этой теме нет новых непрочитанных сообщений. Защитники [фантастика, фэнтези, боевик, приключения, 2017] BDRip 720p [iPad] [Лицензия]

salma3

368 | 63

2.08 ГБ

В этой теме нет новых непрочитанных сообщений. Человек-муравей / Ant-Man [фантастика, боевик, комедия, 2015] BDRip 720p, Dub [iPad] [Лицензия]

salma3

85 | 19

2.15 ГБ

В этой теме нет новых непрочитанных сообщений. 400 дней / 400 Days [фантастика, триллер, детектив, 2015] BDRip 720p, Dvo [iPad]

salma3

2 | 1

1.66 ГБ


Начать новую тему Ответить на тему  [ 1 сообщение ] 




Для Мосгорсуда, Роскомнадзора и рекламодателей:: mosgorsud-torrent[собачка]yandex.ru
cron