Торрент файл
скачать торрент магнет ссылка Добавлен: 05 янв 2013, 22:47
Размер: 3.88 ГБ
Сидеров: 1
Личеров: 3
Автор

СообщениеДобавлено: 05 янв 2013, 22:47 

Не в сети
Супермодератор
Аватара пользователя
Дата регистрации:
11 апр 2010, 18:10
Спасибо: 5996 / 7
Сообщения: 56684
id="p-25224744-1">
Халк / Hulk«Unleash the hero within»


Страна: США
Жанр: фантастика, боевик
Год выпуска: 2003
Продолжительность: 02:18:13

Перевод #1: Профессиональный (полное дублирование)
Перевод #2: Авторский (одноголосый закадровый) Гаврилов

Оригинальная аудиодорожка: Английский
Cубтитры: Русские, Английские
Режиссер: Энг Ли / Ang Lee

В ролях: Эрик Бана (Bruce Banner), Дженнифер Коннелли (Betty Ross,), Сэм Эллиотт (Ross), Джош Лукас (Talbot), Ник Нолти (Father), Пол Керси (Young David Banner), Кара Буоно (Edith Banner), Тодд Тэсэн (Young Ross), Кевин О. Ранкин (Harper), Селия Уэстон (Mrs. Krensler), Майк Эрвин (Teenage Bruce Banner), Лу Ферриньо (Security Guard)
Дублёры: Анатолий Белый (Bruce Banner), Ольга Зубкова (Betty Ross), Андрей Ярославцев (Ross), Никита Прозоровский (Talbot), Дальвин Щербаков (Father)

Описание: Доктор Брюс Бэннер (ученый, работающий над изобретением новой бомбы) подвергся воздействию гамма-лучей и превратился в Халка - существо невероятной физической силы, которое в состоянии ярости становится огромным зеленым монстром.
Его преследуют военные под предводительством генерала Росса, ему приходится бежать через всю страну. В конце концов, у него возникает любовная история с генеральской дочкой Бетти…
Рейтинг
imdb.com: 5.70 (94 443)
MPAA: PG-13 - Детям до 13 лет просмотр не желателен
Качество видео: BDRip - Исходник BD Remux
Формат видео: m4v
Видео кодек: H.264
Аудио кодек: AAC
Видео: 1280х694 (16:9), 23,976 fps, H.264 3500 kbps avg, 0.164 bit/pixel
Аудио #1: Russian, 48,0 kHz, AAC LC, 2 ch, 185 kbps avg | DUB
Аудио #2: Russian, 48,0 kHz, AAC LC, 2 ch, 171 kbps avg | AVO
Аудио #3: English, 48,0 kHz, AAC LC, 2 ch, 161 kbps avg | Original
MediaInfo
Код:
Код:
General
Complete name                            : Z:\Torrent\iPad3\Hulk\Hulk.2003.BDRip.m4v
Format                                   : MPEG-4
Codec ID                                 : M4V
File size                                : 3.88 GiB
Duration                                 : 2h 18mn
Overall bit rate mode                    : Variable
Overall bit rate                         : 4 024 Kbps
Movie name                               : Халк
Performer                                : Энг Ли
Genre                                    : фантастика, боевик
Recorded date                            : UTC 2003-06-17 07:00:00
Encoded date                             : UTC 2012-02-25 16:11:45
Tagged date                              : UTC 2012-02-26 16:16:08
Writing application                      : MkvToMp4 [www.mkvtomp4.ru] version 0.218
Cover                                    : Yes
desc                                     : Доктор Брюс Бэннер (ученый, работающий над изобретением новой бомбы) подвергся воздействию гамма-лучей и превратился в Халка — существо невероятной физической силы, которое в состоянии ярости становится огромным зеленым монстром.
ldes                                     : Доктор Брюс Бэннер (ученый, работающий над изобретением новой бомбы) подвергся воздействию гамма-лучей и превратился в Халка — существо невероятной физической силы, которое в состоянии ярости становится огромным зеленым монстром. Его преследуют военные под предводительством генерала Росса, ему приходится бежать через всю страну. В конце концов, у него возникает любовная история с генеральской дочкой Бетти…
hdvd                                     : 1
stik                                     : 9
akID                                     : -1
sfID                                     : 0
cnID                                     : 301672012
xid                                      : iPad:vendor_id:2003-7962
iTunEXTC                                 : mpaa|PG-13|300|
iTunMOVI                                 : <?xml version="1.0" encoding="UTF-8"?> / <!DOCTYPE plist PUBLIC "-/Apple/DTD PLIST 1.0/EN" "http:/www.apple.com/DTDs/PropertyList-1.0.dtd"> / <plist version="1.0"> /  <dict> /   <key>cast</key> /   <array> /    <dict> /     <key>name</key> /     <string>Эрик Бана</string> /    </dict> /    <dict> /     <key>name</key> /     <string>Дженнифер Коннелли</string> /    </dict> /    <dict> /     <key>name</key> /     <string>Сэм Эллиотт</string> /    </dict> /    <dict> /     <key>name</key> /     <string>Джош Лукас</string> /    </dict> /    <dict> /     <key>name</key> /     <string>Ник Нолти</string> /    </dict> /    <dict> /     <key>name</key> /     <string>Пол Керси</string> /    </dict> /    <dict> /     <key>name</key> /     <string>Кара Буоно</string> /    </dict> /    <dict> /     <key>name</key> /     <string>Тодд Тэсэн</string> /    </dict> /    <dict> /     <key>name</key> /     <string>Кевин О. Ранкин</string> /    </dict> /    <dict> /     <key>name</key> /     <string>Селия Уэстон</string> /    </dict> /   </array> /   <key>directors</key> /   <array> /    <dict> /     <key>name</key> /     <string>Энг Ли</string> /    </dict> /   </array> /   <key>producers</key> /   <array> /    <dict> /     <key>name</key> /     <string>Ави Арад</string> /    </dict> /    <dict> /     <key>name</key> /     <string>Кевин Файги</string> /    </dict> /    <dict> /     <key>name</key> /     <string>Ларри Дж. Франко</string> /    </dict> /   </array> /   <key>screenwriters</key> /   <array> /    <dict> /     <key>name</key> /     <string>Джеймс Шамус</string> /    </dict> /    <dict> /     <key>name</key> /     <string>Джон Турман</string> /    </dict> /    <dict> /     <key>name</key> /     <string>Майкл Франс</string> /    </dict> /   </array> /  </dict> / </plist>
Video
ID                                       : 1
Format                                   : AVC
Format/Info                              : Advanced Video Codec
Format profile                           : [email protected]
Format settings, CABAC                   : Yes
Format settings, ReFrames                : 8 frames
Codec ID                                 : avc1
Codec ID/Info                            : Advanced Video Coding
Duration                                 : 2h 18mn
Bit rate                                 : 3 500 Kbps
Maximum bit rate                         : 16.1 Mbps
Width                                    : 1 280 pixels
Height                                   : 694 pixels
Display aspect ratio                     : 16:9
Frame rate mode                          : Constant
Frame rate                               : 23.976 fps
Color space                              : YUV
Chroma subsampling                       : 4:2:0
Bit depth                                : 8 bits
Scan type                                : Progressive
Bits/(Pixel*Frame)                       : 0.164
Stream size                              : 3.38 GiB (87%)
Writing library                          : x264 core 119 r2106 07efeb4
Encoding settings                        : cabac=1 / ref=8 / deblock=1:-3:-3 / analyse=0x3:0x113 / me=umh / subme=10 / psy=1 / psy_rd=1.05:0.10 / mixed_ref=1 / me_range=36 / chroma_me=1 / trellis=2 / 8x8dct=1 / cqm=0 / deadzone=21,11 / fast_pskip=0 / chroma_qp_offset=-3 / threads=12 / sliced_threads=0 / nr=0 / decimate=0 / interlaced=0 / bluray_compat=0 / constrained_intra=0 / bframes=8 / b_pyramid=2 / b_adapt=2 / b_bias=0 / direct=3 / weightb=1 / open_gop=0 / weightp=2 / keyint=250 / keyint_min=23 / scenecut=40 / intra_refresh=0 / rc=2pass / mbtree=0 / bitrate=3500 / ratetol=1.0 / qcomp=0.60 / qpmin=0 / qpmax=69 / qpstep=4 / cplxblur=20.0 / qblur=0.5 / ip_ratio=1.40 / pb_ratio=1.30 / aq=2:1.10
Language                                 : English
Encoded date                             : UTC 2012-02-25 16:11:45
Tagged date                              : UTC 2012-02-25 16:14:20
Audio #1
ID                                       : 2
Format                                   : AAC
Format/Info                              : Advanced Audio Codec
Format profile                           : LC
Codec ID                                 : 40
Duration                                 : 2h 18mn
Bit rate mode                            : Variable
Bit rate                                 : 185 Kbps
Maximum bit rate                         : 242 Kbps
Channel(s)                               : 2 channels
Channel positions                        : Front: L R
Sampling rate                            : 48.0 KHz
Compression mode                         : Lossy
Stream size                              : 183 MiB (5%)
Title                                    : DUB
Language                                 : Russian
Encoded date                             : UTC 2012-02-25 16:12:37
Tagged date                              : UTC 2012-02-25 16:14:20
Audio #2
ID                                       : 3
Format                                   : AAC
Format/Info                              : Advanced Audio Codec
Format profile                           : LC
Codec ID                                 : 40
Duration                                 : 2h 18mn
Bit rate mode                            : Variable
Bit rate                                 : 171 Kbps
Maximum bit rate                         : 248 Kbps
Channel(s)                               : 2 channels
Channel positions                        : Front: L R
Sampling rate                            : 48.0 KHz
Compression mode                         : Lossy
Stream size                              : 169 MiB (4%)
Title                                    : AVO (Gavrilov)
Language                                 : Russian
Encoded date                             : UTC 2012-02-25 16:13:31
Tagged date                              : UTC 2012-02-25 16:14:20
Audio #3
ID                                       : 4
Format                                   : AAC
Format/Info                              : Advanced Audio Codec
Format profile                           : LC
Codec ID                                 : 40
Duration                                 : 2h 18mn
Bit rate mode                            : Variable
Bit rate                                 : 161 Kbps
Maximum bit rate                         : 247 Kbps
Channel(s)                               : 2 channels
Channel positions                        : Front: L R
Sampling rate                            : 48.0 KHz
Compression mode                         : Lossy
Stream size                              : 160 MiB (4%)
Title                                    : Original
Language                                 : English
Encoded date                             : UTC 2012-02-25 16:14:01
Tagged date                              : UTC 2012-02-25 16:14:20
Text #1
ID                                       : 5
Format                                   : Timed text
Muxing mode                              : sbtl
Codec ID                                 : tx3g
Duration                                 : 2h 12mn
Bit rate mode                            : Variable
Bit rate                                 : 64 bps
Stream size                              : 61.7 KiB (0%)
Language                                 : Russian
Encoded date                             : UTC 2012-02-25 16:14:20
Tagged date                              : UTC 2012-02-25 16:14:20
Text #2
ID                                       : 6
Format                                   : Timed text
Muxing mode                              : sbtl
Codec ID                                 : tx3g
Duration                                 : 2h 13mn
Bit rate mode                            : Variable
Bit rate                                 : 48 bps
Stream size                              : 47.0 KiB (0%)
Language                                 : Russian
Encoded date                             : UTC 2012-02-25 16:14:20
Tagged date                              : UTC 2012-02-25 16:14:20

x264 log
Код:
Код:
x264 [info]: frame I:1275  Avg QP:16.58  size: 91383
x264 [info]: frame P:44531 Avg QP:19.58  size: 35325
x264 [info]: frame B:153033 Avg QP:21.27  size: 12663
x264 [info]: consecutive B-frames:  3.1%  3.4%  6.0% 19.2% 16.0% 39.7%  6.8%  3.6%  2.3%
x264 [info]: mb I  I16..4:  7.3% 82.6% 10.0%
x264 [info]: mb P  I16..4:  2.6% 16.4%  1.1%  P16..4: 42.3% 22.0% 10.4%  0.0%  0.0%    skip: 5.3%
x264 [info]: mb B  I16..4:  0.1%  0.9%  0.1%  B16..8: 44.2% 11.5%  2.3%  direct: 6.1%  skip:34.9%  L0:46.0% L1:44.6% BI: 9.4%
x264 [info]: 8x8 transform intra:82.0% inter:67.6%
x264 [info]: direct mvs  spatial:99.2% temporal:0.8%
x264 [info]: coded y,uvDC,uvAC intra: 84.0% 71.1% 36.4% inter: 28.8% 21.6% 4.7%
x264 [info]: i16 v,h,dc,p: 53% 12%  7% 27%
x264 [info]: i8 v,h,dc,ddl,ddr,vr,hd,vl,hu: 12%  8%  7% 10% 14% 13% 13% 11% 12%
x264 [info]: i4 v,h,dc,ddl,ddr,vr,hd,vl,hu: 14%  7%  3%  9% 15% 15% 13% 11% 11%
x264 [info]: i8c dc,h,v,p: 39% 26% 19% 16%
x264 [info]: Weighted P-Frames: Y:17.4% UV:10.9%
x264 [info]: ref P L0: 41.8%  9.5% 21.0%  8.1%  6.9%  4.7%  4.5%  2.7%  0.7%  0.1%
x264 [info]: ref B L0: 66.6% 15.3%  8.0%  4.4%  3.2%  1.8%  0.7%
x264 [info]: ref B L1: 91.3%  8.7%
x264 [info]: kb/s:3499.23

Скриншоты

Скриншоты с iPad




Вернуться к началу
 Профиль Отправить личное сообщение  
 
   Похожие торренты   Автор   Торрент   Размер 
В этой теме нет новых непрочитанных сообщений. Халк / Hulk [фантастика, боевик, 2003] BDRemux 1080p, Dub

salma3

0 | 3

32.52 ГБ

В этой теме нет новых непрочитанных сообщений. Невероятный Халк / The Incredible Hulk [Фантастика, боевик, триллер, 2008] UHD Blu-Ray EUR 2160p, Dub [4K] [Лицензия]

salma3

0 | 0

57.62 ГБ

В этой теме нет новых непрочитанных сообщений. Невероятный Халк / The Incredible Hulk [Фантастика, боевик, триллер, 2008] UHD BDRemux 2160p, Dub [Лицензия]

salma3

1 | 4

59.7 ГБ

В этой теме нет новых непрочитанных сообщений. Фредди против Джейсона / Freddy vs. Jason [ужасы, боевик, триллер, 2003] BDRip 720p, Dub [iPad]

salma3

0 | 0

2.49 ГБ

В этой теме нет новых непрочитанных сообщений. Защитники [фантастика, фэнтези, боевик, приключения, 2017] BDRip 720p [iPad] [Лицензия]

salma3

368 | 63

2.08 ГБ

В этой теме нет новых непрочитанных сообщений. Преступник / Criminal [фантастика, боевик, триллер, 2016] BDRip 720p, Dub [iPad] [Лицензия]

salma3

0 | 0

2.37 ГБ

В этой теме нет новых непрочитанных сообщений. Человек-муравей / Ant-Man [фантастика, боевик, комедия, 2015] BDRip 720p, Dub [iPad] [Лицензия]

salma3

85 | 19

2.15 ГБ


Начать новую тему Ответить на тему  [ 1 сообщение ] 




Для Мосгорсуда, Роскомнадзора и рекламодателей:: mosgorsud-torrent[собачка]yandex.ru
cron