Торрент файл
скачать торрент магнет ссылка Добавлен: 05 янв 2013, 22:47
Размер: 2.92 ГБ
Сидеров: 8
Личеров: 4
Автор

СообщениеДобавлено: 05 янв 2013, 22:47 

Не в сети
Супермодератор
Аватара пользователя
Дата регистрации:
11 апр 2010, 18:10
Спасибо: 5995 / 7
Сообщения: 56685
id="p-25224744-1">Умница Уилл Хантинг / Good Will Hunting
«Some people can never believe in themselves, until someone believes in them.»
Год выпуска: 1997
Страна: Be Gentlemen Limited Partnership, Miramax Films (США)
Жанр: Драма
Продолжительность: 02:06:33
Перевод : Профессиональный двухголосый
Русские субтитры: есть
Режиссёр: Гас Ван Сент/Gus Van Sant
В ролях: Робин Уильямс, Мэтт Дэймон, Бен Аффлек, Стеллан Скарсгард, Минни Драйвер, Кейси Аффлек, Коул Хаузер, Джон Майтон, Рэйчел Маджоровски, Коллин МакКоли
Описание: Уилл Хантинг — 20-летний парень из Бостона, который то и дело ввязывается в неприятные истории. Неожиданно он открывает в себе феноменальные математические способности. И когда полиция арестовывает его за очередную драку, профессор математики берет его под свою опеку, но при одном условии: Уилл должен пройти курс психотерапии. Сеансы «перевоспитания», начавшиеся с недоверия, постепенно перерастают в дружбу между Уиллом и его наставником.
Доп. информация:
Исходник:Умница Уилл Хантинг / Good Will Hunting / 1997 / ПД, АП (Живов) / Blu-Ray Remux (1080p) (Кинозал)
Качество: BDRip
Формат: *.mp4
Видео кодек: H.264
аудио кодек: ААС
Разрешение: 1024x560
Другие параметры видео: 2800kbit/s; 23.976fps
Аудио 1: Rus 160kbit/s; 2ch; 48KHz Профессиональный двухголосый (Премьер Видео Фильм)
Аудио 2: Rus 160kbit/s; 2ch; 48KHz Авторский одноголосый - (Ю. Живов)
Аудио 3: Eng 160kbit/s; 2ch; 48KHz Оригинал
MediaInfo
General
Complete name : /Users/imac/HandBrake/Umnica.Uill.Hanting.1997.x264.BDRip.1024x.m4v
Format : MPEG-4
Format profile : Base Media / Version 2
Codec ID : mp42
File size : 2.92 GiB
Duration : 2h 6mn
Overall bit rate mode : Variable
Overall bit rate : 3 302 Kbps
Movie name : Умница Уилл Хантинг
Performer : Гас Ван Сент
Genre : Drama
Recorded date : UTC 1998-01-09 14:00:00
Encoded date : UTC 2012-09-20 05:34:35
Tagged date : UTC 2012-09-23 10:42:06
Writing application : HandBrake 0.9.8 2012071800
Cover : Yes
iTunEXTC : mpaa|R|400|
desc : Уилл Хантинг — 20-летний парень из Бостона, который то и дело ввязывается в неприятные истории. Неожиданно он открывает в себе феноменальные математические способности.
ldes : Уилл Хантинг — 20-летний парень из Бостона, который то и дело ввязывается в неприятные истории. Неожиданно он открывает в себе феноменальные математические способности. И когда полиция арестовывает его за очередную драку, профессор математики берет его под свою опеку, но при одном условии: Уилл должен пройти курс психотерапии. Сеансы «перевоспитания», начавшиеся с недоверия, постепенно перерастают в дружбу между Уиллом и его наставником.
stik : 0
iTunMOVI : <?xml version="1.0" encoding="UTF-8"?> / <!DOCTYPE plist PUBLIC "-/Apple/DTD PLIST 1.0/EN" "http://www.apple.com/DTDs/PropertyList-1.0.dtd"> / <plist version="1.0"> / <dict> / <key>cast</key> / <array> / <dict> / <key>name</key> / <string> Робин Уильямс</string> / </dict> / <dict> / <key>name</key> / <string>Мэтт Дэймон</string> / </dict> / <dict> / <key>name</key> / <string>Бен Аффлек</string> / </dict> / </array> / <key>directors</key> / <array> / <dict> / <key>name</key> / <string>Гас Ван Сент</string> / </dict> / </array> / <key>producers</key> / <array> / <dict> / <key>name</key> / <string>Лоуренс Бендер</string> / </dict> / <dict> / <key>name</key> / <string>Су Армстронг</string> / </dict> / <dict> / <key>name</key> / <string>Джон Гордон</string> / </dict> / <dict> / <key>name</key> / <string>...</string> / </dict> / </array> / <key>screenwriters</key> / <array> / <dict> / <key>name</key> / <string>Мэтт Дэймон</string> / </dict> / <dict> / <key>name</key> / <string>Бен Аффлек</string> / </dict> / </array> / </dict> / </plist>
tven : trackId: 432503534
Video #1
ID : 1
Format : AVC
Format/Info : Advanced Video Codec
Format profile : [email protected]
Format settings, CABAC : Yes
Format settings, ReFrames : 9 frames
Codec ID : avc1
Codec ID/Info : Advanced Video Coding
Duration : 2h 6mn
Bit rate mode : Variable
Bit rate : 2 800 Kbps
Width : 1 024 pixels
Height : 560 pixels
Display aspect ratio : 1.85:1
Frame rate mode : Variable
Frame rate : 23.976 fps
Minimum frame rate : 23.974 fps
Maximum frame rate : 23.981 fps
Color space : YUV
Chroma subsampling : 4:2:0
Bit depth : 8 bits
Scan type : Progressive
Bits/(Pixel*Frame) : 0.204
Stream size : 2.48 GiB (85%)
Writing library : x264 core 120
Encoding settings : cabac=1 / ref=9 / deblock=1:0:0 / analyse=0x3:0x113 / me=umh / subme=9 / psy=1 / psy_rd=1.00:0.00 / mixed_ref=1 / me_range=32 / chroma_me=1 / trellis=1 / 8x8dct=1 / cqm=0 / deadzone=21,11 / fast_pskip=1 / chroma_qp_offset=-2 / threads=12 / sliced_threads=0 / nr=0 / decimate=1 / interlaced=0 / bluray_compat=0 / constrained_intra=0 / bframes=6 / b_pyramid=2 / b_adapt=2 / b_bias=0 / direct=1 / weightb=1 / open_gop=0 / weightp=2 / keyint=240 / keyint_min=24 / scenecut=40 / intra_refresh=0 / rc_lookahead=40 / rc=2pass / mbtree=1 / bitrate=2800 / ratetol=1.0 / qcomp=0.60 / qpmin=3 / qpmax=69 / qpstep=4 / cplxblur=20.0 / qblur=0.5 / ip_ratio=1.40 / aq=1:1.00
Encoded date : UTC 2012-09-20 05:34:35
Tagged date : UTC 2012-09-20 07:56:25
Color primaries : BT.709-5, BT.1361, IEC 61966-2-4, SMPTE RP177
Transfer characteristics : BT.709-5, BT.1361
Matrix coefficients : BT.709-5, BT.1361, IEC 61966-2-4 709, SMPTE RP177
Video #2
ID : 8
Format : JPEG
Codec ID : jpeg
Duration : 2h 6mn
Bit rate mode : Variable
Bit rate : 1 296 bps
Width : 640 pixels
Height : 350 pixels
Display aspect ratio : 1.85:1
Frame rate mode : Variable
Frame rate : 0.003 fps
Minimum frame rate : 0.003 fps
Maximum frame rate : 0.011 fps
Color space : YUV
Chroma subsampling : 4:2:0
Bit depth : 8 bits
Compression mode : Lossy
Bits/(Pixel*Frame) : 1.929
Stream size : 1.34 MiB (0%)
Encoded date : UTC 2012-09-23 10:42:05
Tagged date : UTC 2012-09-23 10:42:06
Audio #1
ID : 2
Format : AAC
Format/Info : Advanced Audio Codec
Format profile : LC
Codec ID : 40
Duration : 2h 6mn
Bit rate mode : Variable
Bit rate : 164 Kbps
Maximum bit rate : 239 Kbps
Channel(s) : 2 channels
Channel positions : Front: L R
Sampling rate : 48.0 KHz
Compression mode : Lossy
Stream size : 149 MiB (5%)
Language : Russian
Encoded date : UTC 2012-09-20 05:34:35
Tagged date : UTC 2012-09-20 07:56:25
Audio #2
ID : 3
Format : AAC
Format/Info : Advanced Audio Codec
Format profile : LC
Codec ID : 40
Duration : 2h 6mn
Bit rate mode : Variable
Bit rate : 155 Kbps
Maximum bit rate : 259 Kbps
Channel(s) : 2 channels
Channel positions : Front: L R
Sampling rate : 48.0 KHz
Compression mode : Lossy
Stream size : 140 MiB (5%)
Language : Russian
Encoded date : UTC 2012-09-20 05:34:35
Tagged date : UTC 2012-09-20 07:56:25
Audio #3
ID : 4
Format : AAC
Format/Info : Advanced Audio Codec
Format profile : LC
Codec ID : 40
Duration : 2h 6mn
Bit rate mode : Variable
Bit rate : 161 Kbps
Maximum bit rate : 258 Kbps
Channel(s) : 2 channels
Channel positions : Front: L R
Sampling rate : 48.0 KHz
Compression mode : Lossy
Stream size : 146 MiB (5%)
Language : English
Encoded date : UTC 2012-09-20 05:34:35
Tagged date : UTC 2012-09-20 07:56:25
Text #1
ID : 6
Format : Timed text
Muxing mode : sbtl
Codec ID : tx3g
Duration : 2h 1mn
Bit rate mode : Variable
Bit rate : 113 bps
Stream size : 101 KiB (0%)
Language : Russian
Encoded date : UTC 2012-09-23 10:41:58
Tagged date : UTC 2012-09-23 10:41:58
Text #2
ID : 7
Format : Apple text
Codec ID : text
Duration : 2h 6mn
Bit rate mode : Constant
Bit rate : 1 bps
Stream size : 624 Bytes (0%)
Encoded date : UTC 2012-09-23 10:41:58
Tagged date : UTC 2012-09-23 10:41:58
Menu
00:00:00.000 : Chapter 1
00:04:59.924 : Chapter 2
00:09:59.765 : Chapter 3
00:14:59.898 : Chapter 4
00:19:59.906 : Chapter 5
00:24:59.830 : Chapter 6
00:29:59.879 : Chapter 7
00:34:59.761 : Chapter 8
00:39:59.894 : Chapter 9
00:44:59.735 : Chapter 10
00:49:59.701 : Chapter 11
00:54:59.667 : Chapter 12
00:59:59.758 : Chapter 13
01:04:59.974 : Chapter 14
01:09:59.982 : Chapter 15
01:14:59.823 : Chapter 16
01:19:59.997 : Chapter 17
01:24:59.921 : Chapter 18
01:30:00.054 : Chapter 19
01:35:00.020 : Chapter 20
01:39:59.694 : Chapter 21
01:44:59.910 : Chapter 22
01:49:59.918 : Chapter 23
01:54:59.592 : Chapter 24
01:59:59.600 : Chapter 25
02:04:59.900 : Chapter 26
iTunes meta tag
Encoding Tool: HandBrake 0.9.8 2012071800
Media Type: Movie
iPad:vendor_id:1997- 539
contentID- 539
trackId: 432503534
Screenwriters: Мэтт Дэймон, Бен Аффлек
Producers: Лоуренс Бендер, Су Армстронг, Джон Гордон, ...
Director: Гас Ван Сент
Cast: Робин Уильямс, Мэтт Дэймон, Бен Аффлек
Rating: 5
Long Description: Уилл Хантинг — 20-летний парень из Бостона, который то и дело ввязывается в неприятные истории. Неожиданно он открывает в себе феноменальные математические способности. И когда полиция арестовывает его за очередную драку, профессор математики берет его под свою опеку, но при одном условии: Уилл должен пройти курс психотерапии. Сеансы «перевоспитания», начавшиеся с недоверия, постепенно перерастают в дружбу между Уиллом и его наставником.
Description: Уилл Хантинг — 20-летний парень из Бостона, который то и дело ввязывается в неприятные истории. Неожиданно он открывает в себе феноменальные математические способности.
Release Date: 1998-01-09T14:00:00Z
Genre: Drama
Artist: Гас Ван Сент
Name: Умница Уилл Хантинг
x264 log
x264 [info]: frame I:1376 Avg QP:16.69 size:104216 PSNR Mean Y:46.09 U:50.56 V:51.74 Avg:47.21 Global:46.99
x264 [info]: frame P:36531 Avg QP:19.26 size: 33230 PSNR Mean Y:44.01 U:49.03 V:50.09 Avg:45.18 Global:44.69
x264 [info]: frame B:144147 Avg QP:21.85 size: 9023 PSNR Mean Y:42.04 U:48.28 V:49.56 Avg:43.36 Global:43.13
x264 [info]: consecutive B-frames: 1.3% 1.9% 4.2% 17.3% 20.4% 38.0% 16.9%
x264 [info]: mb I I16..4: 6.3% 74.0% 19.6%
x264 [info]: mb P I16..4: 0.8% 8.8% 1.7% P16..4: 39.0% 29.0% 17.2% 0.0% 0.0% skip: 3.5%
x264 [info]: mb B I16..4: 0.1% 1.4% 0.1% B16..8: 47.4% 10.2% 2.6% direct: 4.5% skip:33.6% L0:44.8% L1:45.9% BI: 9.4%
x264 [info]: 8x8 transform intra:79.8% inter:67.5%
x264 [info]: coded y,uvDC,uvAC intra: 94.0% 76.8% 41.4% inter: 31.3% 25.0% 1.3%
x264 [info]: i16 v,h,dc,p: 24% 24% 9% 43%
x264 [info]: i8 v,h,dc,ddl,ddr,vr,hd,vl,hu: 8% 7% 3% 12% 17% 15% 15% 12% 12%
x264 [info]: i4 v,h,dc,ddl,ddr,vr,hd,vl,hu: 9% 9% 2% 9% 16% 15% 14% 12% 13%
x264 [info]: i8c dc,h,v,p: 36% 27% 21% 16%
x264 [info]: Weighted P-Frames: Y:4.2% UV:0.9%
x264 [info]: ref P L0: 41.8% 12.4% 19.4% 6.5% 6.5% 4.1% 4.4% 2.1% 2.6% 0.2% 0.0%
x264 [info]: ref B L0: 73.0% 12.9% 5.7% 3.0% 2.2% 1.9% 1.0% 0.3%
x264 [info]: ref B L1: 92.1% 7.9%
x264 [info]: SSIM Mean Y:0.9687114 (15.046db)
x264 [info]: PSNR Mean Y:42.466 U:48.444 V:49.681 Avg:43.753 Global:43.419 kb/s:2800.31
Скриншоты



Вернуться к началу
 Профиль Отправить личное сообщение  
 
   Похожие торренты   Автор   Торрент   Размер 
В этой теме нет новых непрочитанных сообщений. Умница Уилл Хантинг / Good Will Hunting [драма, 1997] BDRip-HEVC 1080p, Dvo

salma3

0 | 0

6.66 ГБ

В этой теме нет новых непрочитанных сообщений. Охота / The Hunting Party [боевик, драма, вестерн, 1971] BDRip, Mvo

salma3

127 | 17

1.45 ГБ

В этой теме нет новых непрочитанных сообщений. Охота / The Hunting Party [боевик, драма, вестерн, 1971] BDRip 1080p, Mvo

salma3

45 | 30

9.37 ГБ

В этой теме нет новых непрочитанных сообщений. Охота / The Hunting Party [боевик, драма, вестерн, 1971] BDRip 720p, Mvo

salma3

14 | 6

10.1 ГБ

В этой теме нет новых непрочитанных сообщений. Полночь в саду добра и зла / Midnight in the Garden of Good and Evil [триллер, драма, криминал, детектив, 1997] HDRip, Dub

salma3

158 | 37

1.46 ГБ

В этой теме нет новых непрочитанных сообщений. Отличный гамбургер / Good burger [комедия, семейный, 1997] WEB-DL 1080p, Avo

salma3

45 | 30

3.61 ГБ

В этой теме нет новых непрочитанных сообщений. 28 панфиловцев [военный, драма, 2016] BDRip 720p, Dub [iPad] [Лицензия]

salma3

0 | 0

2.39 ГБ


Начать новую тему Ответить на тему  [ 1 сообщение ] 




Для Мосгорсуда, Роскомнадзора и рекламодателей:: mosgorsud-torrent[собачка]yandex.ru
cron