Торрент файл
скачать торрент магнет ссылка Добавлен: 05 янв 2013, 22:46
Размер: 843.36 МБ
Сидеров: 2
Личеров: 3
Автор

СообщениеДобавлено: 05 янв 2013, 22:46 

Не в сети
Супермодератор
Аватара пользователя
Дата регистрации:
11 апр 2010, 18:10
Спасибо: 5995 / 7
Сообщения: 56685
id="p-25224744-1">Одноклассницы / St. Trinian'sСтрана: Великобритания
Год выпуска: 2007
Жанр: Комедия
Продолжительность: 01:36:45
Перевод : Профессиональный (многоголосый закадровый)
Русские субтитры: есть
Режиссёр: Оливер Паркер / Oliver Parker
В ролях: Миша Бартон, Руперт Эверетт, Колин Ферт, Джоди Уитэйкер, Джемма Артертон, Джонатан Бэйли, Антония Бернат, Расселл Брэнд, Анна Ченселлор, Шерил Твиди
Описание: Сент-Триниан - не совсем обычная школа для молодых особ, не поддающихся контролю. Так собирается пестрая компания непослушных девочек, которые используя остроумие и изобретательность, пытаются спасти школу от банкротства.

Качество: BDRip
Формат: m4v
Разрешение: 592x320
Видео кодек: H.264
Другие параметры видео: 960 Кбит/сек, 25,000 кадр/сек
Аудио:
    Русский, ААС, 2 канала, 128 Кбит/сек, 48,0 КГц
  • Английский, ААС, 2 канала, 128 Кбит/сек, 48,0 КГц
Вшитая обложка: есть
Доп. теги (режиссёр, актёры и т.д.): да
Главы: нет

MediaInfo
Код:
Код:
Общее
Полное имя                       : D:\Мои раздачи\St. Trinian's.m4v
Формат                           : MPEG-4
Профиль формата                  : Base Media / Version 2
Идентификатор кодека             : mp42
Размер файла                     : 843 Мбайт
Продолжительность                : 1 ч. 36 м.
Общий поток                      : 1219 Кбит/сек
Название фильма                  : Одноклассницы
Исполнитель                      : Оливер Паркер, Барнеби Томпсон
Жанр                             : Comedy
Дата записи                      : 2007
Дата кодирования                 : UTC 2011-08-23 06:26:23
Дата пометки                     : UTC 2011-08-23 07:21:55
Программа кодирования            : HandBrake 0.9.5 2011010300
Правообладатель                  : © by RG Apple from rutracker.org
Обложка                          : Yes
desc                             : Сент-Триниан — не совсем обычная школа для молодых особ, не поддающихся контролю.
ldes                             : Сент-Триниан — не совсем обычная школа для молодых особ, не поддающихся контролю. Так собирается пестрая компания непослушных девочек, которые используя остроумие и изобретательность, пытаются спасти школу от банкротства.
stik                             : 0
iTunMOVI                         : <?xml version="1.0" encoding="UTF-8"?> / <!DOCTYPE plist PUBLIC "-/Apple/DTD PLIST 1.0/EN" "http:/www.apple.com/DTDs/PropertyList-1.0.dtd"> / <plist version="1.0"> / <dict> /  <key>cast</key> /  <array> /   <dict> /    <key>name</key> /    <string>Талула Райли</string> /   </dict> /   <dict> /    <key>name</key> /    <string>Руперт Эверетт</string> /   </dict> /   <dict> /    <key>name</key> /    <string>Джоди Уиттакер</string> /   </dict> /   <dict> /    <key>name</key> /    <string>Джемма Артертон</string> /   </dict> /   <dict> /    <key>name</key> /    <string>Кэтрин Дрисдейл</string> /   </dict> /   <dict> /    <key>name</key> /    <string>Джуно Темпл</string> /   </dict> /   <dict> /    <key>name</key> /    <string>Антония Бернат</string> /   </dict> /   <dict> /    <key>name</key> /    <string>Амара Каран</string> /   </dict> /   <dict> /    <key>name</key> /    <string>Тэмсин Эгертон</string> /   </dict> /   <dict> /    <key>name</key> /    <string>Лили Коул</string> /   </dict> /  </array> /  <key>directors</key> /  <array> /   <dict> /    <key>name</key> /    <string>Оливер Паркер</string> /   </dict> /   <dict> /    <key>name</key> /    <string>Барнеби Томпсон</string> /   </dict> /  </array> /  <key>producers</key> /  <array> /   <dict> /    <key>name</key> /    <string>Оливер Паркер</string> /   </dict> /   <dict> /    <key>name</key> /    <string>Барнеби Томпсон</string> /   </dict> /   <dict> /    <key>name</key> /    <string>Руперт Эверетт</string> /   </dict> /  </array> /  <key>screenwriters</key> /  <array> /   <dict> /    <key>name</key> /    <string>Пьерс Эшворт</string> /   </dict> /   <dict> /    <key>name</key> /    <string>Джэми Миноприо</string> /   </dict> /   <dict> /    <key>name</key> /    <string>Ник Муркрофт</string> /   </dict> /  </array> / </dict> / </plist>
iTunEXTC                         : mpaa|PG-13|300|
Видео
Идентификатор                    : 1
Формат                           : AVC
Формат/Информация                : Advanced Video Codec
Профиль формата                  : [email protected]
Параметр CABAC формата           : Нет
Параметр ReFrames формата        : 6 кадры
Идентификатор кодека             : avc1
Идентификатор кодека/Информация  : Advanced Video Coding
Продолжительность                : 1 ч. 36 м.
Вид битрейта                     : Переменный
Битрейт                          : 960 Кбит/сек
Ширина                           : 592 пикс.
Высота                           : 320 пикс.
Соотношение сторон               : 1,850
Режим частоты кадров             : Постоянный
Частота кадров                   : 25,000 кадр/сек
Цветовое пространство            : YUV
Подвыборка цветности             : 4:2:0
Битовая глубина                  : 8 бит
Тип развёртки                    : Прогрессивная
Бит/(Пиксели*Кадры)              : 0.203
Размер потока                    : 662 Мбайт (79%)
Библиотека кодирования           : x264 core 112
Настройки программы              : cabac=0 / ref=6 / deblock=1:0:0 / analyse=0x1:0x131 / me=umh / subme=9 / psy=1 / psy_rd=0.00:0.00 / mixed_ref=0 / me_range=16 / chroma_me=1 / trellis=0 / 8x8dct=0 / cqm=0 / deadzone=21,11 / fast_pskip=0 / chroma_qp_offset=0 / threads=6 / sliced_threads=0 / nr=0 / decimate=1 / interlaced=0 / constrained_intra=0 / bframes=0 / weightp=0 / keyint=250 / keyint_min=25 / scenecut=40 / intra_refresh=0 / rc_lookahead=40 / rc=2pass / mbtree=1 / bitrate=960 / ratetol=1.0 / qcomp=0.60 / qpmin=3 / qpmax=51 / qpstep=4 / cplxblur=20.0 / qblur=0.5 / vbv_maxrate=1500 / vbv_bufsize=2000 / ip_ratio=1.40 / aq=1:1.00 / nal_hrd=none
Дата кодирования                 : UTC 2011-08-23 06:26:23
Дата пометки                     : UTC 2011-08-23 07:21:55
Основные цвета                   : BT.709-5, BT.1361, IEC 61966-2-4, SMPTE RP177
Характеристики трансфера         : BT.709-5, BT.1361
Коэффициенты матрицы             : BT.709-5, BT.1361, IEC 61966-2-4 709, SMPTE RP177
Аудио #1
Идентификатор                    : 2
Формат                           : AAC
Формат/Информация                : Advanced Audio Codec
Профиль формата                  : LC
Идентификатор кодека             : 40
Продолжительность                : 1 ч. 36 м.
Вид битрейта                     : Переменный
Битрейт                          : 128 Кбит/сек
Максимальный битрейт             : 256 Кбит/сек
Канал(ы)                         : 2 канала(ов)
Расположение каналов             : Front: L R
Частота                          : 48,0 КГц
Метод сжатия                     : С потерями
Размер потока                    : 88,3 Мбайт (10%)
Язык                             : Russian
Дата кодирования                 : UTC 2011-08-23 06:26:23
Дата пометки                     : UTC 2011-08-23 07:21:55
Аудио #2
Идентификатор                    : 3
Формат                           : AAC
Формат/Информация                : Advanced Audio Codec
Профиль формата                  : LC
Идентификатор кодека             : 40
Продолжительность                : 1 ч. 36 м.
Вид битрейта                     : Переменный
Битрейт                          : 128 Кбит/сек
Максимальный битрейт             : 224 Кбит/сек
Канал(ы)                         : 2 канала(ов)
Расположение каналов             : Front: L R
Частота                          : 48,0 КГц
Метод сжатия                     : С потерями
Размер потока                    : 88,6 Мбайт (11%)
Язык                             : English
Дата кодирования                 : UTC 2011-08-23 06:26:23
Дата пометки                     : UTC 2011-08-23 07:21:55
Текст
Идентификатор                    : 4
Формат                           : Timed text
Режим смешивания                 : sbtl
Идентификатор кодека             : tx3g
Продолжительность                : 1 ч. 36 м.
Вид битрейта                     : Переменный
Битрейт                          : 89 бит/сек
Размер потока                    : 63,0 Кбайт (0%)
Язык                             : Russian
Дата кодирования                 : UTC 2011-08-23 06:26:23
Дата пометки                     : UTC 2011-08-23 07:21:43

Скриншоты

Переключение аудио, субтитров, глав
iPhone/iPod Touch
Выбрать альтернативный язык звукового сопровождения: Нажмите , затем выберите язык из списка "Аудио".
Показать или скрыть субтитры: Нажмите , затем из списка "Субтитры" выберите язык или "Выкл".
Выбрать главу (эпизод): Нажмите , затем из списка выберете нужную главу (эпизод).
iPod Classic/iPod Nano
Переключение аудио: Видео -> настройки -> вкл./выкл. альтернативное аудио - можно переключиться между 2 первыми по счету аудио дорожками
Включение субтитров: Видео -> настройки -> вкл./выкл. субтитры - можно включить только первые по счету субтитры
Выбрать главу (эпизод): Нажмите центральную кнопку, нажимайте >>| или |<<.




Вернуться к началу
 Профиль Отправить личное сообщение  
 
   Похожие торренты   Автор   Торрент   Размер 
В этой теме нет новых непрочитанных сообщений. Оливер Твист / Oliver Twist [драма, семейный, приключения, 2005] BDRip-AVC, Dub

salma3

22 | 3

2.9 ГБ

В этой теме нет новых непрочитанных сообщений. Оливер! / Oliver! [мюзикл, драма, криминал, семейный, 1968] HDTV 1080i, Mvo+Sub

salma3

34 | 30

12.77 ГБ

В этой теме нет новых непрочитанных сообщений. Миссис Паркер и порочный круг / Mrs. Parker and the Vicious Circle [драма, биография, 1994] DVDRip, Mvo

salma3

40 | 18

1.46 ГБ

В этой теме нет новых непрочитанных сообщений. Одноклассницы [комедия, 2016] DVDRip [Лицензия]

marya111

1003 | 102

1.37 ГБ

В этой теме нет новых непрочитанных сообщений. Одноклассницы [Комедия, 2016] DVDRip [Лицензия]

salma3

547 | 55

744.25 МБ

В этой теме нет новых непрочитанных сообщений. Одноклассницы (комедия, 2016) DVDRip-AVC от OlLanDGroup | Лицензия

marya111

235 | 22

744.31 МБ

В этой теме нет новых непрочитанных сообщений. Одноклассницы: Новый поворот [комедия, мелодрама, 2017] WEB-DLRip

salma3

2747 | 151

1.37 ГБ


Начать новую тему Ответить на тему  [ 1 сообщение ] 




Для Мосгорсуда, Роскомнадзора и рекламодателей:: mosgorsud-torrent[собачка]yandex.ru
cron