Торрент файл
скачать торрент магнет ссылка Добавлен: 05 янв 2013, 22:45
Размер: 1.86 ГБ
Сидеров: 2
Личеров: 3
Автор

СообщениеДобавлено: 05 янв 2013, 22:45 

Не в сети
Супермодератор
Аватара пользователя
Дата регистрации:
11 апр 2010, 18:10
Спасибо: 5995 / 7
Сообщения: 56684
id="p-25224744-1">Патруль / End of Watch
«Где правит адреналин, нет места для страха»
Год выпуска: 2012
Страна: США
Студия: Exclusive Media, EFF-Hedge Fund Films, Le Gribsi, Crave Films, Envision Entertainment Corporation
Жанр: Боевик, триллер, драма, криминал
Продолжительность: 01:48:32
Рейтинг MPAA: R
Перевод: Профессиональный (дублированный)
Оригинальная аудиодорожка: есть
Cубтитры: русские и английские
Режиссёр: Дэвид Эйр/ David Ayer
Сценарий: Дэвид Эйр
Продюссер: Дэвид Эйр, Мэтт Джексон, Джон Лешер
В ролях: Джейк Джилленхол, Майкл Пенья, Анна Кендрик, Натали Мартинез, Америка Феррера, Фрэнк Грилло, Дэвид Харбор, Кле Шахид Слоун, Джейм Фицсаймонс, Коуди Хорн, Шондрелла Эйвери, Эвертон Лоуренс, Ликвид 'Дэвил' Уилкенс, Джеймс 'Пистол' МакНил, Зоун, Элвин Норман, Ричард Кебрал, Дьямоник, Морис Комт, Яхира Гарсиа, Мэнни Хименез мл., Николь Баррерас, Майкл Монкс, Хью Дэйли, Кристи Ву, Дэвид Кастанеда, Кендес Смит, Рамон Камачо, Кевин Вэнс, Корина Калдерон, Дэвид Фернандез, Нелли Кастилло, МакКинли Фриман, Джон А. Руссо, Том Спенсер
Описание:
Они были лучшими копами Лос-Анджелеса. Бесстрашные и везучие напарники, они стали друг другу как братья. Но однажды парни залезли в самое логово преступного мира города, по-глупому подставились и сами стали мишенью… Кто успеет первым разрядить обойму?
Доп. информация:

Качество исходника: BDRemux - Патруль / End of Watch / 2012 / ДБ, СТ / Blu-Ray Remux (1080p)
Качество: BDRip
Разрешение: 1024х576
Формат: MP4
Видео: H.264, 16:9 , 2200kbit/s; 23.976fps
Аудио: Russian/Dub, AAC, 126kbit/s; 2ch; 48KHz
Аудио №2: English/Original, AAC, 125kbit/s; 2ch; 48KHz
iTunes Meta Tags
Код:
XID: Apple:vendor_id:2012-584405
contentID: 584405
Screenwriters: Дэвид Эйр
Producers: Дэвид Эйр, Мэтт Джексон, Джон Лешер
Director: Дэвид Эйер
Cast: Джейк Джилленхол, Майкл Пенья, Анна Кендрик, Натали Мартинез, Америка Феррера, Фрэнк Грилло, Дэвид Харбор, Кле Шахид Слоун, Джейм Фицсаймонс, Коуди Хорн, Шондрелла Эйвери
Rating: 5
Long Description:Они были лучшими копами Лос-Анджелеса. Бесстрашные и везучие напарники, они стали друг другу как братья. Но однажды парни залезли в самое логово преступного мира города, по-глупому подставились и сами стали мишенью… Кто успеет первым разрядить обойму?
Description: Они были лучшими копами Лос-Анджелеса. Бесстрашные и везучие напарники, они стали друг другу как братья.
Release Date: 2012-09-08T23:00:00Z
Genre: Thriller
Artist: Дэвид Эйер
Name: Патруль
MediaInfo
Код:
General
Complete name: /Users/imac/HandBrake/Patrul.2012.x264.BDRip.1024x.m4v
Format: MPEG-4
Codec ID: M4V
File size: 1.86 GiB
Duration: 1h 48mn
Overall bit rate mode: Variable
Overall bit rate: 2 458 Kbps
Movie name: Патруль
Performer: Дэвид Эйер
Genre: Thriller
Recorded date: UTC 2012-09-08 23:00:00
Encoded date: UTC 2012-11-24 19:32:23
Tagged date: UTC 2012-11-24 19:33:02
Cover: Yes
desc: Они были лучшими копами Лос-Анджелеса. Бесстрашные и везучие напарники, они стали друг другу как братья.
ldes:Они были лучшими копами Лос-Анджелеса. Бесстрашные и везучие напарники, они стали друг другу как братья. Но однажды парни залезли в самое логово преступного мира города, по-глупому подставились и сами стали мишенью… Кто успеет первым разрядить обойму?
stik: 9
rtng: 0
cnID: 584405
xid: Apple:vendor_id:2012-584405
iTunEXTC: mpaa|R|400|
iTunMOVI: <?xml version="1.0" encoding="UTF-8"?> / <!DOCTYPE plist PUBLIC "-/Apple/DTD PLIST 1.0/EN" "http://www.apple.com/DTDs/PropertyList-1.0.dtd"> / <plist version="1.0"> / <dict> /<key>cast</key> /<array> /<dict> /<key>name</key> /<string>Джейк Джилленхол</string> /</dict> /<dict> /<key>name</key> /<string>Майкл Пенья</string> /</dict> /<dict> /<key>name</key> /<string>Анна Кендрик</string> /</dict> /<dict> /<key>name</key> /<string>Натали Мартинез</string> /</dict> /<dict> /<key>name</key> /<string>Америка Феррера</string> /</dict> /<dict> /<key>name</key> /<string>Фрэнк Грилло</string> /</dict> /<dict> /<key>name</key> /<string>Дэвид Харбор</string> /</dict> /<dict> /<key>name</key> /<string>Кле Шахид Слоун</string> /</dict> /<dict> /<key>name</key> /<string>Джейм Фицсаймонс</string> /</dict> /<dict> /<key>name</key> /<string>Коуди Хорн</string> /</dict> /<dict> /<key>name</key> /<string>Шондрелла Эйвери</string> /</dict> /</array> /<key>directors</key> /<array> /<dict> /<key>name</key> /<string>Дэвид Эйер</string> /</dict> /</array> /<key>producers</key> /<array> /<dict> /<key>name</key> /<string>Дэвид Эйр</string> /</dict> /<dict> /<key>name</key> /<string>Мэтт Джексон</string> /</dict> /<dict> /<key>name</key> /<string>Джон Лешер</string> /</dict> /</array> /<key>screenwriters</key> /<array> /<dict> /<key>name</key> /<string>Дэвид Эйр</string> /</dict> /</array> / </dict> / </plist>
Video #1
ID: 1
Format: AVC
Format/Info: Advanced Video Codec
Format profile: [email protected]
Format settings, CABAC: Yes
Format settings, ReFrames: 9 frames
Codec ID: avc1
Codec ID/Info: Advanced Video Coding
Duration: 1h 48mn
Bit rate mode: Variable
Bit rate: 2 200 Kbps
Width: 1 024 pixels
Height: 576 pixels
Display aspect ratio: 16:9
Frame rate mode: Variable
Frame rate: 23.976 fps
Minimum frame rate: 23.810 fps
Maximum frame rate: 24.318 fps
Color space: YUV
Chroma subsampling: 4:2:0
Bit depth: 8 bits
Scan type: Progressive
Bits/(Pixel*Frame): 0.156
Stream size: 1.67 GiB (89%)
Writing library: x264 core 120
Encoding settings: cabac=1 / ref=9 / deblock=1:0:0 / analyse=0x3:0x113 / me=umh / subme=9 / psy=1 / psy_rd=1.00:0.00 / mixed_ref=1 / me_range=32 / chroma_me=1 / trellis=1 / 8x8dct=1 / cqm=0 / deadzone=21,11 / fast_pskip=1 / chroma_qp_offset=-2 / threads=12 / sliced_threads=0 / nr=0 / decimate=1 / interlaced=0 / bluray_compat=0 / constrained_intra=0 / bframes=6 / b_pyramid=2 / b_adapt=2 / b_bias=0 / direct=1 / weightb=1 / open_gop=0 / weightp=2 / keyint=240 / keyint_min=24 / scenecut=40 / intra_refresh=0 / rc_lookahead=40 / rc=2pass / mbtree=1 / bitrate=2200 / ratetol=1.0 / qcomp=0.60 / qpmin=3 / qpmax=69 / qpstep=4 / cplxblur=20.0 / qblur=0.5 / ip_ratio=1.40 / aq=1:1.00
Language: English
Encoded date: UTC 2012-11-24 19:32:23
Tagged date: UTC 2012-11-24 19:32:47
Color primaries: BT.709-5, BT.1361, IEC 61966-2-4, SMPTE RP177
Transfer characteristics: BT.709-5, BT.1361
Matrix coefficients: BT.709-5, BT.1361, IEC 61966-2-4 709, SMPTE RP177
Video #2
ID: 7
Format: JPEG
Codec ID: jpeg
Duration: 1h 48mn
Bit rate mode: Variable
Bit rate: 1 145 bps
Width: 640 pixels
Height: 360 pixels
Display aspect ratio: 16:9
Frame rate mode: Variable
Frame rate: 0.003 fps
Minimum frame rate: 0.002 fps
Maximum frame rate: 0.005 fps
Color space: YUV
Chroma subsampling: 4:2:0
Bit depth: 8 bits
Compression mode: Lossy
Bits/(Pixel*Frame): 1.657
Stream size: 839 KiB (0%)
Language: English
Encoded date: UTC 2012-11-24 19:33:02
Tagged date: UTC 2012-11-24 19:33:02
Audio #1
ID: 2
Format: AAC
Format/Info: Advanced Audio Codec
Format profile: LC
Codec ID: 40
Duration: 1h 48mn
Bit rate mode: Variable
Bit rate: 126 Kbps
Maximum bit rate: 183 Kbps
Channel(s): 2 channels
Channel positions: Front: L R
Sampling rate: 48.0 KHz
Compression mode: Lossy
Stream size: 97.5 MiB (5%)
Language: Russian
Encoded date: UTC 2012-11-24 19:32:23
Tagged date: UTC 2012-11-24 19:32:50
Audio #2
ID: 3
Format: AAC
Format/Info: Advanced Audio Codec
Format profile: LC
Codec ID: 40
Duration: 1h 48mn
Bit rate mode: Variable
Bit rate: 125 Kbps
Maximum bit rate: 182 Kbps
Channel(s): 2 channels
Channel positions: Front: L R
Sampling rate: 48.0 KHz
Compression mode: Lossy
Stream size: 97.1 MiB (5%)
Language: English
Encoded date: UTC 2012-11-24 19:32:23
Tagged date: UTC 2012-11-24 19:32:53
Text #1
ID: 4
Format: Timed text
Muxing mode: sbtl
Codec ID: tx3g
Duration: 1h 43mn
Bit rate mode: Variable
Bit rate: 126 bps
Stream size: 95.3 KiB (0%)
Language: Russian
Encoded date: UTC 2012-11-24 19:32:23
Tagged date: UTC 2012-11-24 19:32:53
Text #2
ID: 5
Format: Timed text
Muxing mode: sbtl
Codec ID: tx3g
Duration: 1h 41mn
Bit rate mode: Variable
Bit rate: 92 bps
Stream size: 68.4 KiB (0%)
Language: English
Encoded date: UTC 2012-11-24 19:32:23
Tagged date: UTC 2012-11-24 19:32:53
Text #3
ID: 6
Format: Apple text
Codec ID: text
Duration: 1h 48mn
Bit rate mode: Variable
Bit rate: 1 bps
Stream size: 423 Bytes (0%)
Language: English
Encoded date: UTC 2012-11-24 19:32:53
Tagged date: UTC 2012-11-24 19:32:53
Menu
00:00:00.000: Chapter 1
00:03:15.153: Chapter 2
00:10:19.868: Chapter 3
00:16:57.473: Chapter 4
00:24:11.907: Chapter 5
00:31:45.234: Chapter 6
00:35:55.400: Chapter 7
00:42:17.823: Chapter 8
00:49:03.811: Chapter 9
00:55:37.913: Chapter 10
00:59:27.851: Chapter 11
01:04:02.750: Chapter 12
01:11:01.168: Chapter 13
01:17:28.972: Chapter 14
01:23:03.014: Chapter 15
01:30:03.142: Chapter 16
01:35:19.332: Chapter 17
01:39:05.975: Chapter 18
x264 лог
Код:
x264 [info]: frame I:1344Avg QP:16.07size: 60800PSNR Mean Y:47.77 U:51.24 V:51.32 Avg:48.64 Global:48.07
x264 [info]: frame P:42810 Avg QP:19.22  size: 20082PSNR Mean Y:46.43 U:50.30 V:50.45 Avg:47.35 Global:46.08
x264 [info]: frame B:111996 Avg QP:20.95size:7567PSNR Mean Y:44.46 U:49.02 V:49.20 Avg:45.50 Global:45.02
x264 [info]: consecutive B-frames:4.9%5.9% 12.1% 38.4% 14.1% 17.8%6.8%
x264 [info]: mb II16..4: 15.1% 64.4% 20.5%
x264 [info]: mb PI16..4:3.8% 12.8%2.6%P16..4: 38.7% 18.3% 11.5%0.0%0.0%skip:12.3%
x264 [info]: mb BI16..4:0.3%1.3%0.3%B16..8: 44.9%9.3%2.2%direct: 4.7%skip:37.1%L0:44.8% L1:49.2% BI: 6.0%
x264 [info]: 8x8 transform intra:66.9% inter:75.0%
x264 [info]: coded y,uvDC,uvAC intra: 73.7% 71.0% 36.1% inter: 25.6% 24.7% 1.2%
x264 [info]: i16 v,h,dc,p: 38% 16%7% 39%
x264 [info]: i8 v,h,dc,ddl,ddr,vr,hd,vl,hu:7%7%3% 11% 17% 15% 15% 11% 13%
x264 [info]: i4 v,h,dc,ddl,ddr,vr,hd,vl,hu: 12%8%3%9% 15% 14% 15% 11% 13%
x264 [info]: i8c dc,h,v,p: 37% 27% 20% 16%
x264 [info]: Weighted P-Frames: Y:6.3% UV:3.1%
x264 [info]: ref P L0: 49.9% 10.9% 15.0%7.0%4.9%3.9%3.3%2.4%2.1%0.5%0.0%
x264 [info]: ref B L0: 75.6% 10.8%5.5%3.0%2.1%1.6%1.0%0.4%
x264 [info]: ref B L1: 92.6%7.4%
x264 [info]: SSIM Mean Y:0.9792392 (16.828db)
x264 [info]: PSNR Mean Y:45.026 U:49.391 V:49.560 Avg:46.034 Global:45.309 kb/s:2197.33
Скриншоты



Вернуться к началу
 Профиль Отправить личное сообщение  
 
   Похожие торренты   Автор   Торрент   Размер 
В этой теме нет новых непрочитанных сообщений. Расплата / The Accountant (Боевик, триллер, драма, криминал, 2016) BDRip | iPad | iTunes

marya111

294 | 40

2.2 ГБ

В этой теме нет новых непрочитанных сообщений. Коллекционер 2 / The Collection [ужасы, боевик, триллер, 2012] BDRip 720p, Dub [iPad]

salma3

0 | 0

1.73 ГБ

В этой теме нет новых непрочитанных сообщений. Союзники / Allied [боевик, триллер, драма, 2016] BDRip 720p [iPad] [Лицензия]

salma3

20 | 5

1.52 ГБ

В этой теме нет новых непрочитанных сообщений. Инферно / Inferno [боевик, триллер, драма, 2016] BDRip 720p, Dub [iPad] [Лицензия]

salma3

146 | 28

2.91 ГБ

В этой теме нет новых непрочитанных сообщений. Любой ценой / Hell or High Water [боевик, драма, криминал, вестерн, 2016] BDRip 720p, Dub [iPad] [Лицензия]

salma3

65 | 3

2.31 ГБ

В этой теме нет новых непрочитанных сообщений. Крутые меры / Bastille Day [боевик, триллер, драма, 2016] BDRip 720p, Dub [iPad] [Лицензия]

salma3

0 | 0

1.78 ГБ

В этой теме нет новых непрочитанных сообщений. Калифорнийский дорожный патруль / CHIPS [боевик, комедия, криминал, 2017] BDRip 720p, Dub [iTunes]

salma3

13 | 1

6.09 ГБ


Начать новую тему Ответить на тему  [ 1 сообщение ] 




Для Мосгорсуда, Роскомнадзора и рекламодателей:: mosgorsud-torrent[собачка]yandex.ru
cron