Торрент файл
скачать торрент магнет ссылка Добавлен: 05 янв 2013, 22:45
Размер: 600.41 МБ
Сидеров: 1
Личеров: 2
Автор

СообщениеДобавлено: 05 янв 2013, 22:45 

Не в сети
Супермодератор
Аватара пользователя
Дата регистрации:
11 апр 2010, 18:10
Спасибо: 5995 / 7
Сообщения: 56684
id="p-25224744-1">Ванильное небо / Vanilla Sky
Год выпуска: 2001
Страна: США
Жанр: фантастика, триллер, мелодрама, драма, детектив
Продолжительность: 02:10:25
Перевод: Профессиональный (полное дублирование)
Русские субтитры: нет
Режиссер: Камерон Кроу
В ролях: Том Круз
Пенелопа Крус
Кэмерон Диаз
Курт Рассел
Джейсон Ли
Ной Тейлор
Тимоти Сполл
Тильда Свинтон
Майкл Шеннон
Дилэйна Митчел

Описание: У богатого плэйбоя Дэвида было все: деньги, свой собственный издательский дом, дорогая машина и квартира в респектабельном районе Нью-Йорка, друг-писатель и подружка Джулианна, даже враги, в лице семи управляющих его компанией, тоже были. Так он и жил без оглядки, пока в один прекрасный момент не встретил Софию.Его жизнь круто изменилась вскоре после этой встречи, Дэвид попал в автокатастрофу и очнулся после комы инвалидом с изуродованным лицом, которое приходится прикрывать «эстетическим протезом», а на самом деле простой маской. А дальше его новая жизнь обернулась кошмарным сном, от которого нельзя проснуться.
Качество: DVDRip
Формат: MP4
Видео кодек: H.264
Аудио кодек: AAC
Скриншоты
Тех. данные
General
Format : MPEG-4
Format profile : Base Media
Codec ID : isom
File size : 600 MiB
Duration : 2h 10mn
Overall bit rate : 644 Kbps
Video
Format : AVC
Format/Info : Advanced Video Codec
Format profile : [email protected]
Format settings, CABAC : No
Format settings, ReFrames : 1 frame
Codec ID : avc1
Codec ID/Info : Advanced Video Coding
Duration : 2h 10mn
Bit rate mode : Variable
Bit rate : 512 Kbps
Maximum bit rate : 2 483 Kbps
Width : 320 pixels
Height : 176 pixels
Display aspect ratio : 16/9
Frame rate mode : Constant
Frame rate : 25.000 fps
Resolution : 24 bits
Colorimetry : 4:2:0
Scan type : Progressive
Bits/(Pixel*Frame) : 0.364
Stream size : 478 MiB (80%)
Writing library : x264 core 56 svn-667M
Audio
Format : AAC
Format/Info : Advanced Audio Codec
Format version : Version 4
Format profile : LC
Format settings, SBR : No
Codec ID : 40
Duration : 2h 10mn
Bit rate mode : Variable
Bit rate : 129 Kbps
Maximum bit rate : 181 Kbps
Channel(s) : 2 channels
Channel positions : L R
Sampling rate : 48.0 KHz
Resolution : 16 bits
Stream size : 120 MiB (20%)



Вернуться к началу
 Профиль Отправить личное сообщение  
 
   Похожие торренты   Автор   Торрент   Размер 
В этой теме нет новых непрочитанных сообщений. Табор уходит в небо [мелодрама, драма, 1975] DVDRip

salma3

11 | 5

1.9 ГБ

В этой теме нет новых непрочитанных сообщений. Яма / The Hole [триллер, драма, детектив, 2001] DVDRip-AVC, Mvo

salma3

63 | 11

746.71 МБ

В этой теме нет новых непрочитанных сообщений. Завтрак на обочине / When Strangers Appear [триллер, детектив, драма, 2001] DVDRip, Mvo

salma3

0 | 0

1.22 ГБ

В этой теме нет новых непрочитанных сообщений. Тело / The Body [триллер, драма, мелодрама, 2001] DVDRip-AVC, Mvo

salma3

0 | 0

2.89 ГБ

В этой теме нет новых непрочитанных сообщений. Алоха / Aloha (Кэмерон Кроу) [Драма, мелодрама, комедия, 2015] BDRip-AVC, Dub+Sub [iTunes]

Dracon

1911 | 120

2.84 ГБ

В этой теме нет новых непрочитанных сообщений. Алоха / Aloha (Кэмерон Кроу) [Драма, мелодрама, комедия, 2015] HDRip, Dub [iTunes]

Dracon

41 | 2

2.05 ГБ

В этой теме нет новых непрочитанных сообщений. Алоха / Aloha (Кэмерон Кроу) [Драма, мелодрама, комедия, 2015] BDRemux, Dub+Sub [iTunes]

Dracon

118 | 19

20.24 ГБ


Начать новую тему Ответить на тему  [ 1 сообщение ] 




Для Мосгорсуда, Роскомнадзора и рекламодателей:: mosgorsud-torrent[собачка]yandex.ru
cron