Торрент файл
скачать торрент магнет ссылка Добавлен: 05 янв 2013, 22:45
Размер: 2.35 ГБ
Сидеров: 3
Личеров: 4
Автор

СообщениеДобавлено: 05 янв 2013, 22:45 

Не в сети
Супермодератор
Аватара пользователя
Дата регистрации:
11 апр 2010, 18:10
Спасибо: 5995 / 7
Сообщения: 56684
id="p-25224744-1">Ворон / The Crow



Год выпуска: 1994
Страна: США
Жанр: фэнтези, боевик, триллер, мелодрама, криминал
Продолжительность: 01:41:38
Перевод: Профессиональный (полное дублирование)
Режиссер: Алекс Пройас
В ролях: Брэндон Ли, Эрни Хадсон, Майкл Уинкотт, Дэвид Пэтрик Келли, Эйнджел Дэвид, Рошелль Дэвис, Джон Полито, Бай Лин, Лоуренс Мэйсон
Описание: Это была мрачная и страшная ночь. Ночь жуткого праздника Хэллоуин. Банда насильников и убийц, ворвавшись в дом молодой пары, жестоко расправилась с рок-музыкантом Эриком и его невестой Шелли.
Спустя год Эрик Дрэйвен выбирается из могилы и отправляется на поиски убийц. Человек ли он? Или Ворон, жаждущий возмездия?..

Качество: BDRip
Формат: m4v
Видео кодек: H.264
Аудио кодек: AAC
Видео: 1024x576, 2830 Kbps, 23,976 fps
Аудио Rus: 48 kHz, AAC, 2ch, 129 kbps - Профессиональный (полное дублирование)
Аудио Rus: 48 kHz, AAC, 2ch, 165 kbps - Профессиональный (многоголосый, закадровый)
Аудио Eng: 48 kHz, AAC, 2ch, 165 kbps
MediaInfo
Код:
Код:
Полное имя : F:\iPad\The Crow.m4v
Формат : MPEG-4
Профиль формата : Base Media / Version 2
Идентификатор кодека : mp42
Размер файла : 2,35 Гбайт
Продолжительность : 1 ч. 41 м.
Общий поток : 3305 Кбит/сек
Название фильма : Ворон
Исполнитель : Алекс Пройас
Жанр : Action & Adventure
Дата записи : UTC 1994-05-11 07:00:00
Дата кодирования : UTC 2012-02-18 19:49:18
Дата пометки : UTC 2012-02-19 12:32:54
Программа кодирования : X Lossless Decoder 20100401, QuickTime 7.6.6, Constrained VBR 160 kbps
Обложка : Yes
desc : Это была мрачная и страшная ночь. Ночь жуткого праздника Хэллоуин. Банда насильников и убийц, ворвавшись в дом молодой пары, жестоко расправилась с рок-музыкантом Эриком и его невестой Шелли.
ldes : Это была мрачная и страшная ночь. Ночь жуткого праздника Хэллоуин. Банда насильников и убийц, ворвавшись в дом молодой пары, жестоко расправилась с рок-музыкантом Эриком и его невестой Шелли.
hdvd : 1
stik : 9
rtng : 0
cnID : 448491288
xid : iPad:vendor_id:1994-12362
iTunEXTC : mpaa|R|400|
iTunMOVI : / / / / cast / / / name / Брэндон Ли / / / name / Эрни Хадсон / / / name / Майкл Уинкотт / / / name / Дэвид Пэтрик Келли / / / name / Эйнджел Дэвид / / / name / Рошелль Дэвис / / / name / Джон Полито / / / name / Бай Лин / / / name / Лоуренс Мэйсон / / / directors / / / name / Алекс Пройас / / / producers / / / name / Джефф Мост / / / name / Эдвард Р. Прессман / / / name / Шерман Л. Болдуин / / / screenwriters / / / name / Дэвид Дж. Шоу / / / name / Джон Ширли / / / name / Джеймс О’Барр / / / /
Видео
Идентификатор : 1
Формат : AVC
Формат/Информация : Advanced Video Codec
Профиль формата : [email protected]
Параметр CABAC формата : Да
Параметр ReFrames формата : 10 кадры
Идентификатор кодека : avc1
Идентификатор кодека/Информация : Advanced Video Coding
Продолжительность : 1 ч. 41 м.
Вид битрейта : Переменный
Битрейт : 2830 Кбит/сек
Ширина : 1024 пикс.
Высота : 576 пикс.
Соотношение сторон : 16:9
Режим частоты кадров : Переменный
Частота кадров : 23,976 кадр/сек
Минимальная частота кадров : 23,810 кадр/сек
Максимальная частота кадров : 24,390 кадр/сек
Цветовое пространство : YUV
Подвыборка цветности : 4:2:0
Битовая глубина : 8 бит
Тип развёртки : Прогрессивная
Бит/(Пиксели*Кадры) : 0.200
Размер потока : 2,01 Гбайт (86%)
Библиотека кодирования : x264 core 112 r1867 22bfd31
Настройки программы : cabac=1 / ref=10 / deblock=1:-2:-2 / analyse=0x3:0x133 / me=umh / subme=10 / psy=1 / psy_rd=1.00:0.10 / mixed_ref=1 / me_range=48 / chroma_me=1 / trellis=2 / 8x8dct=1 / cqm=0 / deadzone=21,11 / fast_pskip=0 / chroma_qp_offset=-3 / threads=6 / sliced_threads=0 / nr=0 / decimate=1 / interlaced=0 / constrained_intra=0 / bframes=3 / b_pyramid=2 / b_adapt=2 / b_bias=0 / direct=3 / weightb=1 / open_gop=0 / weightp=2 / keyint=250 / keyint_min=23 / scenecut=40 / intra_refresh=0 / rc_lookahead=40 / rc=2pass / mbtree=1 / bitrate=2830 / ratetol=1.0 / qcomp=0.60 / qpmin=10 / qpmax=51 / qpstep=4 / cplxblur=20.0 / qblur=0.5 / ip_ratio=1.40 / aq=2:0.80
Язык : English
Дата кодирования : UTC 2012-02-18 19:49:18
Дата пометки : UTC 2012-02-18 19:51:13
Аудио #1
Идентификатор : 4
Формат : AAC
Формат/Информация : Advanced Audio Codec
Профиль формата : LC
Идентификатор кодека : 40
Продолжительность : 1 ч. 41 м.
Вид битрейта : Переменный
Битрейт : 165 Кбит/сек
Максимальный битрейт : 254 Кбит/сек
Канал(ы) : 2 канала(ов)
Расположение каналов : Front: L R
Частота : 48,0 КГц
Метод сжатия : С потерями
Размер потока : 120 Мбайт (5%)
Язык : Russian
Дата кодирования : UTC 2012-02-18 19:49:18
Дата пометки : UTC 2012-02-18 19:51:20
Аудио #2
Идентификатор : 5
Формат : AAC
Формат/Информация : Advanced Audio Codec
Профиль формата : LC
Идентификатор кодека : 40
Продолжительность : 1 ч. 41 м.
Вид битрейта : Переменный
Битрейт : 129 Кбит/сек
Максимальный битрейт : 190 Кбит/сек
Канал(ы) : 2 канала(ов)
Расположение каналов : Front: L R
Частота : 48,0 КГц
Метод сжатия : С потерями
Размер потока : 93,5 Мбайт (4%)
Язык : Russian
Дата кодирования : UTC 2012-02-18 19:49:18
Дата пометки : UTC 2012-02-18 19:51:25
Аудио #3
Идентификатор : 6
Формат : AAC
Формат/Информация : Advanced Audio Codec
Профиль формата : LC
Идентификатор кодека : 40
Продолжительность : 1 ч. 41 м.
Вид битрейта : Переменный
Битрейт : 165 Кбит/сек
Максимальный битрейт : 261 Кбит/сек
Канал(ы) : 2 канала(ов)
Расположение каналов : Front: L R
Частота : 48,0 КГц
Метод сжатия : С потерями
Размер потока : 120 Мбайт (5%)
Язык : English
Дата кодирования : UTC 2012-02-18 19:49:18
Дата пометки : UTC 2012-02-18 19:51:31
Текст #1
Идентификатор : 2
Формат : Timed text
Режим смешивания : sbtl
Идентификатор кодека : tx3g
Продолжительность : 2 м. 23 с.
Вид битрейта : Переменный
Битрейт : 56 бит/сек
Размер потока : 996 байт (0%)
Язык : Russian
Дата кодирования : UTC 2012-02-18 19:49:18
Дата пометки : UTC 2012-02-18 19:51:13
Текст #2
Идентификатор : 3
Формат : Timed text
Режим смешивания : sbtl
Идентификатор кодека : tx3g
Продолжительность : 1 ч. 34 м.
Вид битрейта : Переменный
Битрейт : 47 бит/сек
Размер потока : 32,6 Кбайт (0%)
Язык : English
Дата кодирования : UTC 2012-02-18 19:49:18
Дата пометки : UTC 2012-02-18 19:51:13
Текст #3
Идентификатор : 8
Формат : Apple text
Идентификатор кодека : text
Продолжительность : 1 ч. 41 м.
Вид битрейта : Постоянный
Битрейт : 1 бит/сек
Размер потока : 456 байт (0%)
Дата кодирования : UTC 2012-02-19 12:32:54
Дата пометки : UTC 2012-02-19 12:32:54
Меню
00:00:00.000 : Chapter 01
00:07:16.602 : Chapter 02
00:09:46.419 : Chapter 03
00:18:49.461 : Chapter 04
00:25:40.372 : Chapter 05
00:31:38.021 : Chapter 06
00:37:55.523 : Chapter 07
00:44:27.539 : Chapter 08
00:48:31.033 : Chapter 09
00:51:53.860 : Chapter 10
00:56:56.579 : Chapter 11
00:59:33.903 : Chapter 12
01:03:52.620 : Chapter 13
01:09:20.573 : Chapter 14
01:12:08.741 : Chapter 15
01:19:17.043 : Chapter 16
01:22:18.767 : Chapter 17
01:34:11.479 : Chapter 18
01:41:38.133 : Chapter 19

Скриншоты



Вернуться к началу
 Профиль Отправить личное сообщение  
 
   Похожие торренты   Автор   Торрент   Размер 
В этой теме нет новых непрочитанных сообщений. Ворон / The Crow [Фэнтези, боевик, триллер, 1994] BDRip, Mvo

salma3

24 | 3

1.46 ГБ

В этой теме нет новых непрочитанных сообщений. Ворон / The Crow [фэнтези, боевик, триллер, 1994] BDRip-AVC, Mvo

salma3

20 | 7

2.19 ГБ

В этой теме нет новых непрочитанных сообщений. Ворон / The Crow [фэнтези, боевик, триллер, 1994] BDRip 720p, Dub

salma3

0 | 0

7.77 ГБ

В этой теме нет новых непрочитанных сообщений. Ворон / The Crow [Триллер, фэнтези, боевик, 1994] BDRip 1080p, Dvo [Remastered]

salma3

0 | 1

7.95 ГБ

В этой теме нет новых непрочитанных сообщений. Ворон / The Crow [фэнтези, боевик, триллер, 1994] HDRip-AVC, Mvo

salma3

36 | 6

742.34 МБ

В этой теме нет новых непрочитанных сообщений. Ворон / The Crow [Фэнтези, боевик, триллер, 1994] BDRemux 1080p, Mvo

salma3

0 | 0

22.26 ГБ

В этой теме нет новых непрочитанных сообщений. Ворон 3: Спасение / The Crow: Salvation [фэнтези, боевик, триллер, криминал, детектив, 2000] BDRip 720p, Mvo

salma3

23 | 8

4.36 ГБ


Начать новую тему Ответить на тему  [ 1 сообщение ] 




Для Мосгорсуда, Роскомнадзора и рекламодателей:: mosgorsud-torrent[собачка]yandex.ru
cron