Торрент файл
скачать торрент магнет ссылка Добавлен: 05 янв 2013, 22:44
Размер: 667.81 МБ
Сидеров: 0
Личеров: 2
Автор

СообщениеДобавлено: 05 янв 2013, 22:44 

Не в сети
Супермодератор
Аватара пользователя
Дата регистрации:
11 апр 2010, 18:10
Спасибо: 5996 / 7
Сообщения: 56684
id="p-25224744-1">Страна:
Год выпуска: 1957
Жанр: Драма
Продолжительность: 01:31:52
Качество/ Исходник: BDRip
Перевод: Профессиональный - многоголосый закадровый
Звуковые дорожки: Русская - проф.мн.зак
Тэги: Полное тэгирование
Субтитры: Русские/ Английские - ( "мягкие" ) отключаемые

В ролях:
Victor Sjöström/ Виктор Шёстрём — профессор Исак Борг (дубл. Алексей Алексеев)
Bibi Andersson/ Биби Андерссон — Сара (дубл. Мария Виноградова)
Ingrid Thulin/ Ингрид Тулин — Марианна Борг (дубл. Светлана Коновалова)
Gunnar Björnstrand/ Гуннар Бьёрнстранд — Эвальд Борг (дубл. Феликс Яворский)
Folke Sundquist/ Фульке Сундквист — Андерс (дубл. Юрий Чекулаев)
Jullan Kindahl/ Юллан Киндаль — Агда (дубл. Александра Панова)
Naima Wifstrand/ Найма Вифстранд — мать Исака (дубл. Елена Понсова)
Gunnel Broström/ Гуннель Брустрём — миссис Альман (дубл. Валентина Караваева)
Gertrud Fridh/ Гертруд Фрид — Карин, жена Исака (дубл. Серафима Холина)
Описание:«Земляничная поляна» (швед. Smultronstället) — художественный фильм, драма шведского режиссёра Ингмара Бергмана.Фильм занимает 102 - е место в списке 250 лучших фильмов по версии
Фильм занимает 130 - е место в списке 250 лучших фильмов по версии Деятельность 78-летнего профессора Исаака Борга из Стокгольма была отмечена учёным сообществом в Лунде (Honoris causa) ...
Туда он отправляется на автомобиле вместе с невесткой — Марианной, хотя были уже куплены билеты на самолёт ...
По пути они заезжают в то место
... где профессор жил давным-давно, им встречаются несколько молодых попутчиков, профессору снятся сны и просто видятся картины прошлого, в которых он встречается со своей семьей (братьями, кузинами), когда они были молоды ...
Невестка откровенно рассказывает Боргу о проблемах с его сыном, который очень похож на отца ...
Профессор задумывается о том, в чем он не прав, и решает менять свою замкнутую и местами эгоистичную натуру ...
О фильме
Художественные особенности
    Smultronstället в дословном переводе со шведского означает Дикий земляничный участок. Сценарий к этому фильму написал сам режиссёр, в то время, когда он находился на госпитализации.
    Главные роли в этом фильме исполнили киноактёры, постоянно снимающиеся у Бергмана — Ингрид Тулин, Гуннар Бьёрнстранд и Биби Андерссон, а основную роль профессора Исака Борга сыграл пожилой режиссёр Виктор Шёстрём, которому было глубоко за 70. Макс фон Сюдов тоже снялся в этом фильме, исполнив второстепенную роль. Премьера фильма состоялась 26 декабря 1957 года в Швеции. Детям просмотр этого фильма рекомендуется вместе с родителями.
    Несмотря на то что эта кинолента относится к ранним фильмам Ингмара Бергмана, она считается одной из лучших его работ. Здесь он пользуется теми сюжетными и стилевыми средствами, которые позже стали характерными чертами его творчества. Особенно удачно Ингмар Бергман использует в этой ленте искусство ретроспективы — вся жизнь главного героя проносится перед глазами зрителя, заставляя задуматься над своими собственными жизненными поступками.
    Отзывы
    На сайте Internet Movie Database на январь 2011 года фильм имеет рейтинг 8,4 балла (всего проголосовало 22 772 человека), причём наибольшее количество респондентов — 7565 (33,2 %) поставили фильму максимальную оценку 10 баллов. На май 2009 года фильм занимал 131-е место в списке 250 лучших фильмов по версии IMDB.
    Сайт Rotten Tomatoes дал фильму рейтинг 94 %: 29 из 31 экспертов написали положительный отзыв. По 10 бальной системе фильм получил оценку 8,8 балла.
    Награды и номинации
    Награды
    Берлинский кинофестиваль:
    1958 — Золотой медведь (Ингмар Бергман)
    Номинации
    Оскар:
  • 1960 — Лучший оригинальный сценарий (Ингмар Бергман)
Вид данного материала в iTunes
Как включить субтитры - звуковые дорожки
iPod Classic, Nano_______Видео -> настройки -> вкл./выкл. альтернативное аудио
Видео -> настройки -> вкл./выкл. субтитры
Тех. данные
Формат: MP4/M4V
Видео кодек: H.264
Аудио кодек: AAC
Видео: 480x368 (4:3), 883 Kbps, 23.976 fps
Аудио: AAC LC, 129 Kbps, 2 channels
Русские субтитры (отключаемые): Text 3GPP
Английские субтитры (отключаемые): Text 3GPP
Русская дорожка: AAC LC - 1h 31 mn - 129 Kbps - 2 Ch - 48KHz
General
Complete name : Земляничная поляна.m4v
Format : MPEG-4
Codec ID : M4V
File size : 668 MiB
Duration : 1h 31mn
Overall bit rate : 1 016 Kbps
Movie name : Земляничная поляна
Genre : Drama
Recorded date : 1957.12.26
Encoded date : UTC 2011-06-19 21:10:56
Tagged date : UTC 2011-06-20 21:19:21
Cover : Yes
iTunMOVI : <?xml version="1.0" encoding="UTF-8"?> / <!DOCTYPE plist PUBLIC "-/Apple/DTD PLIST 1.0/EN" "http://www.apple.com/DTDs/PropertyList-1.0.dtd"> / <plist version="1.0"> / <dict> / <key>cast</key> / <array> / <dict> / <key>name</key> / <string>Виктор Шёстрём</string> / </dict> / <dict> / <key>name</key> / <string>Биби Андерссон</string> / </dict> / <dict> / <key>name</key> / <string>Ингрид Тулин</string> / </dict> / <dict> / <key>name</key> / <string>Гуннар Бьёрнстранд</string> / </dict> / <dict> / <key>name</key> / <string>Макс фон Сюдов</string> / </dict> / <dict> / <key>name</key> / <string>Гуннель Линдблум</string> / </dict> / <dict> / <key>name</key> / <string>Мод Ханссон</string> / </dict> / <dict> / <key>name</key> / <string>Юллан Киндаль</string> / </dict> / <dict> / <key>name</key> / <string>Фольке Сундквист</string> / </dict> / <dict> / <key>name</key> / <string>Бьёрн Бьельфвенстам</string> / </dict> / </array> / <key>directors</key> / <array> / <dict> / <key>name</key> / <string>Ингмар Бергман</string> / </dict> / </array> / <key>producers</key> / <array> / <dict> / <key>name</key> / <string>Аллан Экелунд</string> / </dict> / </array> / <key>screenwriters</key> / <array> / <dict> / <key>name</key> / <string>Гуннар Фишер</string> / </dict> / </array> / </dict> / </plist>
desc : 78-летний профессор из Стокгольма вспоминает и пересматривает разочарования своей долгой жизни. Вместе с женой сына он едет на машине на вручение почетной докторской степени, посещая по пути места, где был молод, встречая разных людей и старых знакомых, вспоминая сны и былое.
Video
ID : 1
Format : AVC
Format/Info : Advanced Video Codec
Format profile : [email protected]
Format settings, CABAC : No
Format settings, ReFrames : 6 frames
Codec ID : avc1
Codec ID/Info : Advanced Video Coding
Duration : 1h 31mn
Bit rate mode : Variable
Bit rate : 883 Kbps
Maximum bit rate : 2 956 Kbps
Width : 480 pixels
Height : 368 pixels
Display aspect ratio : 4:3
Frame rate mode : Constant
Frame rate : 23.976 fps
Color space : YUV
Chroma subsampling : 4:2:0
Bit depth : 8 bits
Scan type : Progressive
Bits/(Pixel*Frame) : 0.208
Stream size : 580 MiB (87%)
Writing library : x264 core 65 r999kMod cc51047
Encoding settings : cabac=0 / ref=6 / deblock=1:0:0 / analyse=0x1:0x131 / me=umh / subme=6 / psy_rd=1.0:0.0 / mixed_ref=1 / me_range=16 / chroma_me=1 / trellis=0 / 8x8dct=0 / cqm=0 / deadzone=21,11 / chroma_qp_offset=-2 / threads=4 / thread_queue=4 / nr=0 / decimate=1 / mbaff=0 / bframes=0 / keyint=250 / keyint_min=25 / scenecut=40(pre) / rc=2pass / bitrate=883 / ratetol=1.0 / qcomp=0.60 / qpmin=10 / qpmax=51 / qpstep=4 / cplxblur=20.0 / qblur=0.5 / ip_ratio=1.40 / aq=1:1.00
Encoded date : UTC 2011-06-18 23:13:50
Tagged date : UTC 2011-06-19 21:11:59
Audio
ID : 2
Format : AAC
Format/Info : Advanced Audio Codec
Format profile : LC
Codec ID : 40
Duration : 1h 31mn
Bit rate mode : Variable
Bit rate : 127 Kbps
Maximum bit rate : 143 Kbps
Channel(s) : 2 channels
Channel positions : Front: L R
Sampling rate : 48.0 KHz
Compression mode : Lossy
Stream size : 83.8 MiB (13%)
Language : Russian
Encoded date : UTC 2011-06-19 21:11:33
Tagged date : UTC 2011-06-19 21:11:59
Text #1
ID : 3
Format : Timed text
Muxing mode : sbtl
Codec ID : tx3g
Duration : 1h 30mn
Bit rate mode : Variable
Bit rate : 94 bps
Stream size : 62.3 KiB (0%)
Language : Russian
Encoded date : UTC 2011-06-19 21:11:59
Tagged date : UTC 2011-06-19 21:11:59
Text #2
ID : 4
Format : Timed text
Muxing mode : sbtl
Codec ID : tx3g
Duration : 1h 30mn
Bit rate mode : Variable
Bit rate : 57 bps
Stream size : 37.6 KiB (0%)
Language : English
Encoded date : UTC 2011-06-19 21:11:59
Tagged date : UTC 2011-06-19 21:11:59



Вернуться к началу
 Профиль Отправить личное сообщение  
 
   Похожие торренты   Автор   Торрент   Размер 
В этой теме нет новых непрочитанных сообщений. Хождение по мукам: Сёстры [драма, 1957] DVDRip-AVC

salma3

16 | 7

1.46 ГБ

В этой теме нет новых непрочитанных сообщений. Хождение по мукам: Сёстры [драма, 1957] DVDRip

salma3

11 | 7

1.46 ГБ

В этой теме нет новых непрочитанных сообщений. Дело было в Пенькове [драма, мелодрама, 1957] DVDRip

salma3

82 | 11

1.45 ГБ

В этой теме нет новых непрочитанных сообщений. Балтийская слава [драма, история, военный, приключения, 1957] DVDRip-AVC

salma3

36 | 12

1.09 ГБ

В этой теме нет новых непрочитанных сообщений. Балтийская слава [драма, история, военный, приключения, 1957] DVDRip

salma3

20 | 5

1.09 ГБ

В этой теме нет новых непрочитанных сообщений. Сайонара / Sayonara [драма, мелодрама, 1957] BDRip, Mvo

salma3

0 | 0

1.45 ГБ

В этой теме нет новых непрочитанных сообщений. Сайонара / Sayonara [драма, мелодрама, 1957] BDRemux 1080p, Mvo

salma3

0 | 0

33.11 ГБ


Начать новую тему Ответить на тему  [ 1 сообщение ] 




Для Мосгорсуда, Роскомнадзора и рекламодателей:: mosgorsud-torrent[собачка]yandex.ru
cron