Торрент файл
скачать торрент магнет ссылка Добавлен: 05 янв 2013, 22:44
Размер: 3.06 ГБ
Сидеров: 0
Личеров: 2
Автор

СообщениеДобавлено: 05 янв 2013, 22:44 

Не в сети
Супермодератор
Аватара пользователя
Дата регистрации:
11 апр 2010, 18:10
Спасибо: 5996 / 7
Сообщения: 56684
id="p-25224744-1">Крупная Рыба / Big Fish



Год выпуска: 2003
Страна: США
Жанр: Фэнтези, Комедия, Драма
Продолжительность: 125 мин.
Перевод 1: Профессиональный (дублированный)
Перевод 2: Профессиональный (многоголосый закадровый)
Перевод 2: Авторский (одноголосый закадровый) Михаил Чадов
Оригинальная аудиодорожка: английский
Субтитры: есть
Режиссер: Тим Бартон
В ролях: Эван МакГрегор, Альберт Финни, Билли Крадап, Джессика Ланж, Хелена Бонем Картер, Элисон Ломан, Роберт Гийом, Мэрион Котийяр, Мэттью МакГрори, Дэвид Денман
Описание: В основу этой приключенческой ленты положен роман Дэниела Уоллеса «Большая рыба: роман мифических пропорций». Умирает отец, о жизни которого сын хочет узнать как можно больше, собирая истории о нем.
Сын пытается воссоздать ускользающую жизнь отца в серии легенд и мифов, которые тот придумывает на основе разрозненных фактов. Взлеты и падения в жизни человека в итоге предстают в неожиданном ракурсе.
Качество: BDRip
Формат: m4v
Видео кодек: H.264
Аудио кодек: AAC
Видео: 1024x560, 2785 Kbps, 23.976 fps, [email protected]
Аудио Rus: 48 kHz, AAC, 2ch, 192 kbps
Аудио Rus: 48 kHz, AAC, 2ch, 162 kbps
Аудио Rus: 48 kHz, AAC, 2ch, 161 kbps
Аудио Eng: 48 kHz, AAC, 2ch, 192 kbps
MI
Код:
Код:
Complete name : F:\Big Fish.m4v
Format : MPEG-4
Codec ID : M4V
File size : 3.06 GiB
Duration : 2h 5mn
Overall bit rate mode : Variable
Overall bit rate : 3 498 Kbps
Movie name : Крупная рыба
Performer : Тим Бёртон
Genre : Drama
Recorded date : UTC 2003-12-10 07:00:00
Encoded date : UTC 2012-07-26 23:58:43
Tagged date : UTC 2012-07-28 00:13:36
Cover : Yes
desc : В основу этой приключенческой ленты положен роман Дэниела Уоллеса «Большая рыба: роман мифических пропорций». Умирает отец, о жизни которого сын хочет узнать как можно больше, собирая истории о нем.
ldes : В основу этой приключенческой ленты положен роман Дэниела Уоллеса «Большая рыба: роман мифических пропорций». Умирает отец, о жизни которого сын хочет узнать как можно больше, собирая истории о нем.
hdvd : 1
stik : 0
cnID : 280660162
xid : iPad:vendor_id:2003-9617
iTunEXTC : mpaa|PG-13|300|
iTunMOVI : / / / / cast / / / name / Эван МакГрегор / / / name / Альберт Финни / / / name / Билли Крадап / / / name / Джессика Ланж / / / name / Хелена Бонем Картер / / / name / Элисон Ломан / / / name / Роберт Гийом / / / name / Мэрион Котийяр / / / name / Мэттью МакГрори / / / name / Дэвид Денман / / / directors / / / name / Тим Бёртон / / / producers / / / name / Брюс Коэн / / / name / Дэн Джинкс / / / name / Ричард Д. Занук / / / screenwriters / / / name / Джон Огаст / / / name / Дэниэл Уоллес / / / /
Video
ID : 1
Format : AVC
Format/Info : Advanced Video Codec
Format profile : [email protected]
Format settings, CABAC : Yes
Format settings, ReFrames : 11 frames
Codec ID : avc1
Codec ID/Info : Advanced Video Coding
Duration : 2h 5mn
Bit rate : 2 785 Kbps
Maximum bit rate : 14.6 Mbps
Width : 1 024 pixels
Height : 560 pixels
Display aspect ratio : 16:9
Frame rate mode : Variable
Frame rate : 23.976 fps
Minimum frame rate : 12.048 fps
Maximum frame rate : 24.390 fps
Color space : YUV
Chroma subsampling : 4:2:0
Bit depth : 8 bits
Scan type : Progressive
Bits/(Pixel*Frame) : 0.203
Stream size : 2.43 GiB (80%)
Writing library : x264 core 120
Encoding settings : cabac=1 / ref=11 / deblock=1:-2:-1 / analyse=0x3:0x133 / me=umh / subme=11 / psy=1 / psy_rd=1.00:0.20 / mixed_ref=1 / me_range=32 / chroma_me=1 / trellis=2 / 8x8dct=1 / cqm=0 / deadzone=21,11 / fast_pskip=1 / chroma_qp_offset=-3 / threads=3 / sliced_threads=0 / nr=0 / decimate=1 / interlaced=0 / bluray_compat=0 / constrained_intra=0 / bframes=12 / b_pyramid=2 / b_adapt=2 / b_bias=0 / direct=3 / weightb=1 / open_gop=0 / weightp=2 / keyint=240 / keyint_min=24 / scenecut=40 / intra_refresh=0 / rc=crf / mbtree=0 / crf=19.5 / qcomp=0.70 / qpmin=3 / qpmax=69 / qpstep=4 / ip_ratio=1.40 / pb_ratio=1.30 / aq=2:0.80
Language : English
Encoded date : UTC 2012-07-26 23:58:43
Tagged date : UTC 2012-07-27 00:06:32
Color primaries : BT.709-5, BT.1361, IEC 61966-2-4, SMPTE RP177
Transfer characteristics : BT.709-5, BT.1361
Matrix coefficients : BT.709-5, BT.1361, IEC 61966-2-4 709, SMPTE RP177
Audio #1
ID : 2
Format : AAC
Format/Info : Advanced Audio Codec
Format profile : LC
Codec ID : 40
Duration : 2h 5mn
Bit rate mode : Variable
Bit rate : 192 Kbps
Maximum bit rate : 233 Kbps
Channel(s) : 2 channels
Channel positions : Front: L R
Sampling rate : 48.0 KHz
Compression mode : Lossy
Stream size : 169 MiB (5%)
Title : DUB
Language : Russian
Encoded date : UTC 2012-07-27 00:04:21
Tagged date : UTC 2012-07-27 00:06:32
Audio #2
ID : 3
Format : AAC
Format/Info : Advanced Audio Codec
Format profile : LC
Codec ID : 40
Duration : 2h 5mn
Bit rate mode : Variable
Bit rate : 162 Kbps
Maximum bit rate : 205 Kbps
Channel(s) : 2 channels
Channel positions : Front: L R
Sampling rate : 48.0 KHz
Compression mode : Lossy
Stream size : 145 MiB (5%)
Title : MVO
Language : Russian
Encoded date : UTC 2012-07-27 00:04:54
Tagged date : UTC 2012-07-27 00:06:32
Audio #3
ID : 4
Format : AAC
Format/Info : Advanced Audio Codec
Format profile : LC
Codec ID : 40
Duration : 2h 5mn
Bit rate mode : Variable
Bit rate : 161 Kbps
Maximum bit rate : 205 Kbps
Channel(s) : 2 channels
Channel positions : Front: L R
Sampling rate : 48.0 KHz
Compression mode : Lossy
Stream size : 145 MiB (5%)
Title : VO
Language : Russian
Encoded date : UTC 2012-07-27 00:05:26
Tagged date : UTC 2012-07-27 00:06:32
Audio #4
ID : 5
Format : AAC
Format/Info : Advanced Audio Codec
Format profile : LC
Codec ID : 40
Duration : 2h 5mn
Bit rate mode : Variable
Bit rate : 192 Kbps
Maximum bit rate : 229 Kbps
Channel(s) : 2 channels
Channel positions : Front: L R
Sampling rate : 48.0 KHz
Compression mode : Lossy
Stream size : 170 MiB (5%)
Language : English
Encoded date : UTC 2012-07-27 00:05:57
Tagged date : UTC 2012-07-27 00:06:32
Text #1
ID : 6
Format : Timed text
Muxing mode : sbtl
Codec ID : tx3g
Duration : 2h 0mn
Bit rate mode : Variable
Bit rate : 82 bps
Stream size : 72.4 KiB (0%)
Language : Russian
Encoded date : UTC 2012-07-27 00:06:32
Tagged date : UTC 2012-07-27 00:06:32
Text #2
ID : 7
Format : Timed text
Muxing mode : sbtl
Codec ID : tx3g
Duration : 2h 0mn
Bit rate mode : Variable
Bit rate : 55 bps
Stream size : 48.2 KiB (0%)
Language : English
Encoded date : UTC 2012-07-27 00:06:32
Tagged date : UTC 2012-07-27 00:06:32

x264 log
x264 [info]: frame I:1596 Avg QP:18.35 size: 70045 PSNR Mean Y:46.30 U:49.14 V:50.98 Avg:47.07 Global:46.40
x264 [info]: frame P:33369 Avg QP:19.65 size: 29513 PSNR Mean Y:45.25 U:49.83 V:51.99 Avg:46.09 Global:44.83
x264 [info]: frame B:145075 Avg QP:22.07 size: 10458 PSNR Mean Y:43.77 U:47.74 V:50.55 Avg:44.65 Global:43.87
x264 [info]: consecutive B-frames: 1.5% 1.3% 3.9% 12.1% 13.7% 47.1% 7.7% 2.5% 3.0% 2.1% 2.1% 1.9% 1.1%
x264 [info]: mb I I16..4: 8.2% 76.7% 15.2%
x264 [info]: mb P I16..4: 0.6% 10.8% 1.1% P16..4: 30.4% 34.6% 10.0% 2.7% 0.2% skip: 9.5%
x264 [info]: mb B I16..4: 0.0% 1.0% 0.1% B16..8: 34.4% 18.4% 3.0% direct: 6.7% skip:36.4% L0:43.5% L1:42.8% BI:13.6%
x264 [info]: 8x8 transform intra:84.5% inter:58.9%
x264 [info]: direct mvs spatial:100.0% temporal:0.0%
x264 [info]: coded y,uvDC,uvAC intra: 92.3% 90.4% 76.6% inter: 27.1% 30.1% 11.8%
x264 [info]: i16 v,h,dc,p: 32% 14% 11% 42%
x264 [info]: i8 v,h,dc,ddl,ddr,vr,hd,vl,hu: 8% 9% 7% 10% 14% 13% 14% 12% 14%
x264 [info]: i4 v,h,dc,ddl,ddr,vr,hd,vl,hu: 9% 10% 4% 9% 15% 14% 14% 11% 14%
x264 [info]: i8c dc,h,v,p: 48% 19% 15% 18%
x264 [info]: Weighted P-Frames: Y:9.1% UV:4.5%
x264 [info]: ref P L0: 39.8% 9.8% 21.2% 6.6% 6.7% 3.9% 4.3% 1.9% 2.2% 1.5% 1.8% 0.2% 0.0%
x264 [info]: ref B L0: 67.5% 13.7% 6.6% 3.7% 2.5% 2.2% 1.7% 1.1% 0.6% 0.3%
x264 [info]: ref B L1: 92.0% 8.0%
x264 [info]: SSIM Mean Y:0.9751363 (16.044db)
x264 [info]: PSNR Mean Y:44.069 U:48.142 V:50.821 Avg:44.938 Global:44.048 kb/s:2784.59
Скриншоты



Вернуться к началу
 Профиль Отправить личное сообщение  
 
   Похожие торренты   Автор   Торрент   Размер 
В этой теме нет новых непрочитанных сообщений. Крупная рыба / Big Fish [фэнтези, драма, приключения, 2003] BDRip 1080p, Dub+Sub

salma3

69 | 32

7.95 ГБ

В этой теме нет новых непрочитанных сообщений. Рыба-убийца / Killer Fish [ужасы, 1979] BDRip 1080p, 3Avo

salma3

14 | 12

12.7 ГБ

В этой теме нет новых непрочитанных сообщений. Nat Geo Wild: Амазонская электрическая рыба / Amazon's electric fish (2015) HDTVRip-AVC | P1

salma3

0 | 0

848.14 МБ

В этой теме нет новых непрочитанных сообщений. Nat Geo Wild: Амазонская электрическая рыба / Amazon's electric fish (2015) HDTV 1080i | P1

salma3

0 | 0

2.21 ГБ

В этой теме нет новых непрочитанных сообщений. Поворот не туда / Wrong Turn [ужасы, 2003] BDRip 720p, Dub [iPad]

salma3

0 | 0

1.93 ГБ

В этой теме нет новых непрочитанных сообщений. Фредди против Джейсона / Freddy vs. Jason [ужасы, боевик, триллер, 2003] BDRip 720p, Dub [iPad]

salma3

0 | 0

2.49 ГБ

В этой теме нет новых непрочитанных сообщений. Рыбка по имени Ванда / A Fish Called Wanda [комедия, криминал, 1988] BDRip 720p, Mvo [Remastered]

salma3

22 | 1

12.06 ГБ


Начать новую тему Ответить на тему  [ 1 сообщение ] 




Для Мосгорсуда, Роскомнадзора и рекламодателей:: mosgorsud-torrent[собачка]yandex.ru
cron