Торрент файл
скачать торрент магнет ссылка Добавлен: 05 янв 2013, 22:43
Размер: 2.26 ГБ
Сидеров: 11
Личеров: 5
Автор

СообщениеДобавлено: 05 янв 2013, 22:43 

Не в сети
Супермодератор
Аватара пользователя
Дата регистрации:
11 апр 2010, 18:10
Спасибо: 5996 / 7
Сообщения: 56684
id="p-25224744-1">Морской бой / Battleship
«Битва за Землю начнётся на воде»
Год выпуска: 2012
Страна: США
Студия: Battleship Delta Productions, Bluegrass Films, Film 44, Hasbro, Ponysound
Жанр: Фантастика, боевик, триллер
Продолжительность: 02:11:14
Рейтинг MPAA: PG-13
Перевод: Профессиональный (дублированный)
Оригинальная аудиодорожка: есть
Cубтитры: русские и английские
Режиссёр: Питер Берг/ Peter Berg
Сценарий: Джон Хобер, Эрих Хобер
Продюссер: Сара Обри, Питер Берг, Брайан Голднер
В ролях: Тейлор Китч, Александр Скарсгард, Рианна, Бруклин Декер, Таданобу Асано, Лиам Нисон, Джон Туи, Грегори Д. Гэдсон, Джесси Племонс, Хамиш Линклэйтер, Питер МакНикол, Джерри Феррара, Адам Годли, Рико МакКлинтон, Дзездзи Йошида, Луис Ломбарди, Стефен Бишоп, Данте Хименез, Остин Нолти, Джеймс Роулингс, Эндрю Серпас, Карсон Он, Даг Пенти, Джошуа Пенс, Питер Берг, Ллойд Питтс
Описание:
Мы посылаем сигналы в космос и ждем ответа. Но уверены ли мы, что хотим его получить? Что если пришельцы потенциально опасны? В 2009 году на конференции в Вашингтоне астронавт Эдгар Митчелл, побывавший на Луне, сделал сенсационное заявление о существовании внеземной жизни. Теперь мы знаем, контакт не просто возможен, он неизбежен!
Доп. информация:

Качество исходника: BDRemux - Морской бой / Battleship / 2012 / ДБ, СТ / Blu-Ray Remux (1080p)
Качество: BDRip
Разрешение: 1024х432
Формат: MP4
Видео: H.264, 2,40:1 , 2200kbit/s; 23.976fps
Аудио 1: Russian/Dub, AAC, 126kbit/s; 2ch; 48KHz
Аудио 2: English/Original, AAC, 126kbit/s; 2ch; 48KHz
iTunes Meta Tags
Код:
XID: Apple:vendor_id:2012-466844
contentID: 532875377
Screenwriters: Джон Хобер, Эрих Хобер
Producers: Сара Обри, Питер Берг, Брайан Голднер
Director: Питер Берг
Cast: Тейлор Китч, Александр Скарсгард, Рианна, Бруклин Декер, Таданобу Асано, Лиам Нисон, Джон Туи, Грегори Д. Гэдсон, Джесси Племонс, Хамиш Линклэйтер, Питер МакНикол, Джерри Феррара, Адам Годли
Rating: 4
Long Description: Мы посылаем сигналы в космос и ждем ответа. Но уверены ли мы, что хотим его получить? Что если пришельцы потенциально опасны? В 2009 году на конференции в Вашингтоне астронавт Эдгар Митчелл, побывавший на Луне, сделал сенсационное заявление о существовании внеземной жизни. Теперь мы знаем, контакт не просто возможен, он неизбежен!
Description: Мы посылаем сигналы в космос и ждем ответа. Но уверены ли мы, что хотим его получить?
Release Date: 2012-04-03T15:00:00Z
Genre:Action & Adventure
Artist: Питер Берг
Name: Морской бой
MediaInfo
Код:
General
Complete name: /Users/imac/HandBrake/Morskoj.boj.2012.x264.BDRip.1024x.m4v
Format: MPEG-4
Codec ID: M4V
File size: 2.26 GiB
Duration: 2h 11mn
Overall bit rate mode: Variable
Overall bit rate: 2 460 Kbps
Movie name: Морской бой
Performer: Питер Берг
Genre:Action & Adventure
Recorded date: UTC 2012-04-03 15:00:00
Encoded date: UTC 2013-01-02 19:30:29
Tagged date: UTC 2013-01-02 19:33:30
Cover: Yes
desc: Мы посылаем сигналы в космос и ждем ответа. Но уверены ли мы, что хотим его получить?
ldes: Мы посылаем сигналы в космос и ждем ответа. Но уверены ли мы, что хотим его получить? Что если пришельцы потенциально опасны? В 2009 году на конференции в Вашингтоне астронавт Эдгар Митчелл, побывавший на Луне, сделал сенсационное заявление о существовании внеземной жизни. Теперь мы знаем, контакт не просто возможен, он неизбежен!
stik: 9
rtng: 0
cnID: 532875377
xid: Apple:vendor_id:2012-466844
iTunEXTC: mpaa|PG-13|300|
iTunMOVI: <?xml version="1.0" encoding="UTF-8"?> / <!DOCTYPE plist PUBLIC "-/Apple/DTD PLIST 1.0/EN" "http://www.apple.com/DTDs/PropertyList-1.0.dtd"> / <plist version="1.0"> / <dict> /<key>cast</key> /<array> /<dict> /<key>name</key> /<string>Тейлор Китч</string> /</dict> /<dict> /<key>name</key> /<string>Александр Скарсгард</string> /</dict> /<dict> /<key>name</key> /<string>Рианна</string> /</dict> /<dict> /<key>name</key> /<string>Бруклин Декер</string> /</dict> /<dict> /<key>name</key> /<string>Таданобу Асано</string> /</dict> /<dict> /<key>name</key> /<string>Лиам Нисон</string> /</dict> /<dict> /<key>name</key> /<string>Джон Туи</string> /</dict> /<dict> /<key>name</key> /<string>Грегори Д. Гэдсон</string> /</dict> /<dict> /<key>name</key> /<string>Джесси Племонс</string> /</dict> /<dict> /<key>name</key> /<string>Хамиш Линклэйтер</string> /</dict> /<dict> /<key>name</key> /<string>Питер МакНикол</string> /</dict> /<dict> /<key>name</key> /<string>Джерри Феррара</string> /</dict> /<dict> /<key>name</key> /<string>Адам Годли</string> /</dict> /</array> /<key>directors</key> /<array> /<dict> /<key>name</key> /<string>Питер Берг</string> /</dict> /</array> /<key>producers</key> /<array> /<dict> /<key>name</key> /<string>Сара Обри</string> /</dict> /<dict> /<key>name</key> /<string>Питер Берг</string> /</dict> /<dict> /<key>name</key> /<string>Брайан Голднер</string> /</dict> /</array> /<key>screenwriters</key> /<array> /<dict> /<key>name</key> /<string>Джон Хобер</string> /</dict> /<dict> /<key>name</key> /<string>Эрих Хобер</string> /</dict> /</array> / </dict> / </plist>
Video #1
ID: 1
Format: AVC
Format/Info: Advanced Video Codec
Format profile: [email protected]
Format settings, CABAC: Yes
Format settings, ReFrames: 9 frames
Codec ID: avc1
Codec ID/Info: Advanced Video Coding
Duration: 2h 11mn
Bit rate mode: Variable
Bit rate: 2 200 Kbps
Width: 1 024 pixels
Height: 432 pixels
Display aspect ratio: 2.40:1
Frame rate mode: Variable
Frame rate: 23.976 fps
Minimum frame rate: 23.810 fps
Maximum frame rate: 24.272 fps
Color space: YUV
Chroma subsampling: 4:2:0
Bit depth: 8 bits
Scan type: Progressive
Bits/(Pixel*Frame): 0.207
Stream size: 2.02 GiB (89%)
Writing library: x264 core 120
Encoding settings: cabac=1 / ref=9 / deblock=1:0:0 / analyse=0x3:0x113 / me=umh / subme=9 / psy=1 / psy_rd=1.00:0.00 / mixed_ref=1 / me_range=32 / chroma_me=1 / trellis=1 / 8x8dct=1 / cqm=0 / deadzone=21,11 / fast_pskip=1 / chroma_qp_offset=-2 / threads=12 / sliced_threads=0 / nr=0 / decimate=1 / interlaced=0 / bluray_compat=0 / constrained_intra=0 / bframes=6 / b_pyramid=2 / b_adapt=2 / b_bias=0 / direct=1 / weightb=1 / open_gop=0 / weightp=2 / keyint=240 / keyint_min=24 / scenecut=40 / intra_refresh=0 / rc_lookahead=40 / rc=2pass / mbtree=1 / bitrate=2200 / ratetol=1.0 / qcomp=0.60 / qpmin=3 / qpmax=69 / qpstep=4 / cplxblur=20.0 / qblur=0.5 / ip_ratio=1.40 / aq=1:1.00
Language: English
Encoded date: UTC 2013-01-02 19:30:30
Tagged date: UTC 2013-01-02 19:33:05
Color primaries: BT.709-5, BT.1361, IEC 61966-2-4, SMPTE RP177
Transfer characteristics: BT.709-5, BT.1361
Matrix coefficients: BT.709-5, BT.1361, IEC 61966-2-4 709, SMPTE RP177
Video #2
ID: 7
Format: JPEG
Codec ID: jpeg
Duration: 2h 11mn
Bit rate mode: Variable
Bit rate: 1 060 bps
Width: 640 pixels
Height: 270 pixels
Display aspect ratio: 2.40:1
Frame rate mode: Variable
Frame rate: 0.003 fps
Minimum frame rate: 0.002 fps
Maximum frame rate: 0.010 fps
Color space: YUV
Chroma subsampling: 4:2:0
Bit depth: 8 bits
Compression mode: Lossy
Bits/(Pixel*Frame): 2.045
Stream size: 863 KiB (0%)
Language: English
Encoded date: UTC 2013-01-02 19:33:29
Tagged date: UTC 2013-01-02 19:33:30
Audio #1
ID: 2
Format: AAC
Format/Info: Advanced Audio Codec
Format profile: LC
Codec ID: 40
Duration: 2h 11mn
Bit rate mode: Variable
Bit rate: 126 Kbps
Maximum bit rate: 196 Kbps
Channel(s): 2 channels
Channel positions: Front: L R
Sampling rate: 48.0 KHz
Compression mode: Lossy
Stream size: 118 MiB (5%)
Language: Russian
Encoded date: UTC 2013-01-02 19:30:30
Tagged date: UTC 2013-01-02 19:33:13
Audio #2
ID: 3
Format: AAC
Format/Info: Advanced Audio Codec
Format profile: LC
Codec ID: 40
Duration: 2h 11mn
Bit rate mode: Variable
Bit rate: 126 Kbps
Maximum bit rate: 192 Kbps
Channel(s): 2 channels
Channel positions: Front: L R
Sampling rate: 48.0 KHz
Compression mode: Lossy
Stream size: 118 MiB (5%)
Language: English
Encoded date: UTC 2013-01-02 19:30:30
Tagged date: UTC 2013-01-02 19:33:23
Text #1
ID: 4
Format: Timed text
Muxing mode: sbtl
Codec ID: tx3g
Duration: 2h 10mn
Bit rate mode: Variable
Bit rate: 77 bps
Stream size: 74.0 KiB (0%)
Language: Russian
Encoded date: UTC 2013-01-02 19:30:30
Tagged date: UTC 2013-01-02 19:33:23
Text #2
ID: 5
Format: Timed text
Muxing mode: sbtl
Codec ID: tx3g
Duration: 2h 11mn
Bit rate mode: Variable
Bit rate: 58 bps
Stream size: 56.1 KiB (0%)
Language: English
Encoded date: UTC 2013-01-02 19:30:30
Tagged date: UTC 2013-01-02 19:33:23
Text #3
ID: 6
Format: Apple text
Codec ID: text
Duration: 2h 11mn
Bit rate mode: Constant
Bit rate: 1 bps
Stream size: 520 Bytes (0%)
Language: English
Encoded date: UTC 2013-01-02 19:33:23
Tagged date: UTC 2013-01-02 19:33:23
Menu
00:00:00.000: 00:00:00.000
00:09:24.188: 00:09:24.105
00:15:04.444: 00:15:04.320
00:23:08.761: 00:23:08.679
00:29:44.114: 00:29:44.032
00:36:26.891: 00:36:26.810
00:42:01.350: 00:42:01.269
00:49:09.736: 00:49:09.655
00:56:08.404: 00:56:08.323
01:00:02.304: 01:00:02.224
01:09:50.600: 01:09:50.520
01:15:26.811: 01:15:26.731
01:20:57.015: 01:20:56.935
01:29:47.503: 01:29:47.424
01:37:14.491: 01:37:14.412
01:43:32.327: 01:43:32.248
01:49:38.651: 01:49:38.572
01:56:20.761: 01:56:20.682
02:00:41.438: 02:00:41.359
02:09:34.136: 02:09:33.975
x264 лог
Код:
x264 [info]: frame I:2062  Avg QP:16.93size: 68938PSNR Mean Y:46.00 U:48.38 V:48.36 Avg:46.63 Global:46.23
x264 [info]: frame P:50321 Avg QP:19.95size: 20345PSNR Mean Y:44.63 U:47.41 V:47.10 Avg:45.21 Global:44.42
x264 [info]: frame B:136426 Avg QP:22.16size:7327PSNR Mean Y:43.17 U:46.64 V:46.53 Avg:43.96 Global:43.39
x264 [info]: consecutive B-frames:4.7%5.4% 11.2% 37.3% 17.6% 17.0%6.9%
x264 [info]: mb II16..4: 13.8% 65.2% 21.1%
x264 [info]: mb PI16..4:3.6% 16.1%3.5%P16..4: 36.3% 19.5% 11.9%0.0%0.0%skip: 9.2%
x264 [info]: mb BI16..4:0.3%2.3%0.7%B16..8: 42.7%9.1%2.7%direct: 5.8%skip:36.4%L0:44.2% L1:46.6% BI: 9.3%
x264 [info]: 8x8 transform intra:69.2% inter:72.3%
x264 [info]: coded y,uvDC,uvAC intra: 82.2% 85.9% 58.0% inter: 27.3% 30.0% 4.5%
x264 [info]: i16 v,h,dc,p: 18% 20%7% 55%
x264 [info]: i8 v,h,dc,ddl,ddr,vr,hd,vl,hu:6%8%2% 11% 17% 14% 17% 11% 14%
x264 [info]: i4 v,h,dc,ddl,ddr,vr,hd,vl,hu:5%8%2% 10% 16% 14% 17% 11% 16%
x264 [info]: i8c dc,h,v,p: 35% 26% 16% 22%
x264 [info]: Weighted P-Frames: Y:6.7% UV:4.5%
x264 [info]: ref P L0: 52.9% 12.5% 14.9%5.8%4.5%3.5%2.6%1.6%1.5%0.4%0.0%
x264 [info]: ref B L0: 77.3% 10.4%5.1%2.6%1.9%1.6%0.7%0.3%
x264 [info]: ref B L1: 92.8%7.2%
x264 [info]: SSIM Mean Y:0.9759088 (16.181db)
x264 [info]: PSNR Mean Y:43.593 U:46.867 V:46.702 Avg:44.322 Global:43.666 kb/s:2199.90
Скриншоты



Вернуться к началу
 Профиль Отправить личное сообщение  
 
   Похожие торренты   Автор   Торрент   Размер 
В этой теме нет новых непрочитанных сообщений. Морской бой / Battleship [фантастика, боевик, триллер, приключения, 2012] BDRip-HEVC 1080p, Dub

salma3

123 | 42

5.98 ГБ

В этой теме нет новых непрочитанных сообщений. Морской бой / Battleship [фантастика, боевик, военный, 2012] BDRip, Avo [Гаврилов]

salma3

44 | 14

2.18 ГБ

В этой теме нет новых непрочитанных сообщений. Морской бой / Battleship [Фантастика, боевик, триллер, 2012] BDRemux 2160p, Dub [4K]

salma3

0 | 0

66.19 ГБ

В этой теме нет новых непрочитанных сообщений. Морской бой / Battleship [Фантастика, боевик, приключения, 2012] BDRemux 1080p, Dub

salma3

0 | 0

36.78 ГБ

В этой теме нет новых непрочитанных сообщений. Коллекционер 2 / The Collection [ужасы, боевик, триллер, 2012] BDRip 720p, Dub [iPad]

salma3

0 | 0

1.73 ГБ

В этой теме нет новых непрочитанных сообщений. Преступник / Criminal [фантастика, боевик, триллер, 2016] BDRip 720p, Dub [iPad] [Лицензия]

salma3

0 | 0

2.37 ГБ

В этой теме нет новых непрочитанных сообщений. Морской пехотинец / The Marine [Боевик, триллер, драма, 2006] BDRip 720p, Dub

salma3

0 | 0

4.35 ГБ


Начать новую тему Ответить на тему  [ 1 сообщение ] 




Для Мосгорсуда, Роскомнадзора и рекламодателей:: mosgorsud-torrent[собачка]yandex.ru
cron