Торрент файл
скачать торрент магнет ссылка Добавлен: 05 янв 2013, 22:43
Размер: 4.46 ГБ
Сидеров: 2
Личеров: 4
Автор

СообщениеДобавлено: 05 янв 2013, 22:43 

Не в сети
Супермодератор
Аватара пользователя
Дата регистрации:
11 апр 2010, 18:10
Спасибо: 5995 / 7
Сообщения: 56685
id="p-25224744-1">УТОМЛЕННЫЕ СОЛНЦЕМ 2
Предстояние
Год выпуска: 2010
Страна: Россия
Жанр: Драма, военный
Продолжительность: 03:00:41
Перевод : Не требуется
Режиссёр: Никита Михалков
В ролях: Никита Михалков, Надежда Михалкова, Виктория Толстоганова, Олег Меньшиков, Дмитрий Дюжев, Андрей Панин, Александр Пашутин, Валентин Гафт, Николай Козак, Иван Добронравов
Описание: Продолжение картины 1994 года. Героям первого фильма придется пройти сквозь пекло Великой Отечественной войны, чтобы найти друг друга и попытаться вновь стать счастливыми.
Бывший комдив Котов, несправедливо осуждённый в 30-е годы как враг народа, чудом выжил и был отправлен на войну обычным рядовым бойцом штрафного батальона. Воевал, как все: в грязи, холоде и голоде, не заглядывая в будущее больше, чем на один день, да и тот надо было суметь прожить. Прожить и выжить в аду, которым была военная передовая. Его спасла вера. Вера в свою страну, вера в Бога и вера его дочери Нади в то, что отец жив…
Качество: BDRip
Формат: *.mp4
Видео кодек: H.264
Аудио кодек: ААС
Разрешение: 960х408
Другие параметры видео: 1 881 Kbps; 24.000 fps
Аудио: AAC LC, Variable 160 Kbps, 2 channels.
Вшитая обложка: есть
Доп. теги (режиссёр, актёры и т.д.): прописаны
MediaInfo
Complete name : D:\Video\iOS Video\US2\Utomlennie.Solncem.2.Predstoyanie.2010.BDRip.mp4
Format : MPEG-4
Format profile : Base Media
Codec ID : isom
File size : 2.58 GiB
Duration : 3h 0mn
Overall bit rate : 2 044 Kbps
Movie name : Предстояние
Performer : Никита Михалков, Надежда Михалкова, Виктория Толстоганова, Олег Меньшиков, Дмитрий Дюжев, Андрей Панин, Александр Пашутин, Валентин Гафт, Николай Козак, Иван Добронравов
Genre : Драма, военный
Recorded date : 2010
Encoded date : UTC 2011-07-21 05:42:01
Tagged date : UTC 2011-07-24 09:15:18
Cover : Yes
Comment : Утомленные солнцем 2 - 1
desc : Продолжение картины 1994 года. Героям первого фильма придется пройти сквозь пекло Великой Отечественной войны, чтобы найти друг друга и попытаться вновь стать счастливыми...
Video
ID : 1
Format : AVC
Format/Info : Advanced Video Codec
Format profile : [email protected]
Format settings, CABAC : Yes
Format settings, ReFrames : 3 frames
Codec ID : avc1
Codec ID/Info : Advanced Video Coding
Duration : 3h 0mn
Bit rate mode : Variable
Bit rate : 1 881 Kbps
Maximum bit rate : 15.2 Mbps
Width : 960 pixels
Height : 408 pixels
Display aspect ratio : 2.35:1
Frame rate mode : Constant
Frame rate : 24.000 fps
Color space : YUV
Chroma subsampling : 4:2:0
Bit depth : 8 bits
Scan type : Progressive
Bits/(Pixel*Frame) : 0.200
Stream size : 2.37 GiB (92%)
Writing library : x264 core 75 r1251kMod e553a4c
Encoding settings : cabac=1 / ref=3 / deblock=1:-1:0 / analyse=0x3:0x131 / me=umh / subme=9 / psy=1 / psy_rd=1.0:0.0 / mixed_ref=1 / me_range=19 / chroma_me=1 / trellis=1 / 8x8dct=1 / cqm=0 / deadzone=21,11 / chroma_qp_offset=-2 / threads=3 / nr=0 / decimate=1 / mbaff=0 / bframes=3 / b_pyramid=0 / b_adapt=1 / b_bias=0 / direct=3 / wpredb=1 / keyint=250 / keyint_min=25 / scenecut=40 / rc_lookahead=40 / rc=2pass / mbtree=1 / bitrate=1881 / ratetol=1.0 / qcomp=0.60 / qpmin=10 / qpmax=51 / qpstep=4 / cplxblur=20.0 / qblur=0.5 / ip_ratio=1.40 / aq=1:1.00
Encoded date : UTC 2011-07-21 05:42:01
Tagged date : UTC 2011-07-21 05:45:44
Audio
ID : 2
Format : AAC
Format/Info : Advanced Audio Codec
Format profile : LC
Codec ID : 40
Duration : 3h 0mn
Bit rate mode : Variable
Bit rate : 160 Kbps
Maximum bit rate : 176 Kbps
Channel(s) : 2 channels
Channel positions : Front: L R
Sampling rate : 48.0 KHz
Compression mode : Lossy
Stream size : 207 MiB (8%)
Encoded date : UTC 2011-07-21 05:45:29
Tagged date : UTC 2011-07-24 09:15:18
Скриншоты
Скриншоты (хронометраж)
iTunes



Цитадель
Год выпуска: 2011
Страна: Россия
Жанр: Драма, военный
Продолжительность: 02:37:07
Перевод : Не требуется
Режиссёр: Никита Михалков
В ролях: Никита Михалков, Надежда Михалкова, Виктория Толстоганова, Владимир Ильин, Олег Меньшиков, Дмитрий Дюжев, Михаил Ефремов, Анна Михалкова, Максим Зыков, Максим Суханов
Описание: Своей искалеченной судьбой заплатил комдив Котов за восстановление доброго имени. Он возвращается в дом, воспоминания о котором давали ему силы все эти страшные годы. Но то, что ждало в этом доме, его потрясло. Все изменилось, его хрупкий мир рухнул. Котову снова придется сражаться. За свое имя, за свою честь, за свою любовь, за свою Цитадель...
Качество: BDRip
Формат: *.mp4
Видео кодек: H.264
Аудио кодек: ААС
Разрешение: 960х408
Другие параметры видео: 1 555 Kbps; 24.000 fps
Аудио: AAC LC, Variable 160 Kbps, 2 channels.
Вшитая обложка: есть
Доп. теги (режиссёр, актёры и т.д.): прописаны
MediaInfo
Complete name : D:\Video\iOS Video\US2\Utomlennie.Solncem.2.Citadel.2011.BDRip.mp4
Format : MPEG-4
Format profile : Base Media
Codec ID : isom
File size : 1.88 GiB
Duration : 2h 37mn
Overall bit rate : 1 714 Kbps
Movie name : Цитадель
Performer : Никита Михалков, Надежда Михалкова, Виктория Толстоганова, Олег Меньшиков, Дмитрий Дюжев, Андрей Панин, Александр Пашутин, Валентин Гафт, Николай Козак, Иван Добронравов
Genre : Драма, военный
Recorded date : 2011
Encoded date : UTC 2011-07-23 03:21:00
Tagged date : UTC 2011-07-24 08:59:53
Cover : Yes
Comment : Утомленные солнцем 2 - 2
desc : Своей искалеченной судьбой заплатил комдив Котов за восстановление доброго имени. Он возвращается в дом, воспоминания о котором давали ему силы все эти страшные годы. Но то, что ждало в этом доме, его потрясло. Все изменилось, его хрупкий мир рухнул...
Video
ID : 1
Format : AVC
Format/Info : Advanced Video Codec
Format profile : [email protected]
Format settings, CABAC : Yes
Format settings, ReFrames : 3 frames
Codec ID : avc1
Codec ID/Info : Advanced Video Coding
Duration : 2h 37mn
Bit rate mode : Variable
Bit rate : 1 555 Kbps
Maximum bit rate : 10.7 Mbps
Width : 960 pixels
Height : 408 pixels
Display aspect ratio : 2.35:1
Frame rate mode : Constant
Frame rate : 24.000 fps
Color space : YUV
Chroma subsampling : 4:2:0
Bit depth : 8 bits
Scan type : Progressive
Bits/(Pixel*Frame) : 0.165
Stream size : 1.71 GiB (91%)
Writing library : x264 core 75 r1251kMod e553a4c
Encoding settings : cabac=1 / ref=3 / deblock=1:-1:0 / analyse=0x3:0x131 / me=umh / subme=9 / psy=1 / psy_rd=1.0:0.0 / mixed_ref=1 / me_range=19 / chroma_me=1 / trellis=1 / 8x8dct=1 / cqm=0 / deadzone=21,11 / chroma_qp_offset=-2 / threads=3 / nr=0 / decimate=1 / mbaff=0 / bframes=3 / b_pyramid=0 / b_adapt=1 / b_bias=0 / direct=3 / wpredb=1 / keyint=250 / keyint_min=25 / scenecut=40 / rc_lookahead=40 / rc=2pass / mbtree=1 / bitrate=1555 / ratetol=1.0 / qcomp=0.60 / qpmin=10 / qpmax=51 / qpstep=4 / cplxblur=20.0 / qblur=0.5 / ip_ratio=1.40 / aq=1:1.00
Encoded date : UTC 2011-07-23 03:21:00
Tagged date : UTC 2011-07-23 03:22:51
Audio
ID : 2
Format : AAC
Format/Info : Advanced Audio Codec
Format profile : LC
Codec ID : 40
Duration : 2h 37mn
Bit rate mode : Variable
Bit rate : 156 Kbps
Maximum bit rate : 276 Kbps
Channel(s) : 6 channels
Channel positions : Front: L C R, Side: L R, LFE
Sampling rate : 48.0 KHz
Compression mode : Lossy
Stream size : 175 MiB (9%)
Encoded date : UTC 2011-07-23 03:22:40
Tagged date : UTC 2011-07-24 08:59:53
Скриншоты
Скриншоты (хронометраж)
iTunes




Вернуться к началу
 Профиль Отправить личное сообщение  
 
   Похожие торренты   Автор   Торрент   Размер 
В этой теме нет новых непрочитанных сообщений. Утомлённые солнцем 2: Цитадель [Драма, военный, 2011] BDRemux 1080p

salma3

3 | 5

18.8 ГБ

В этой теме нет новых непрочитанных сообщений. Утомлённые солнцем 2: Цитадель [Драма, военный, 2011] BDRemux 1080p

salma3

1 | 4

33.84 ГБ

В этой теме нет новых непрочитанных сообщений. Цитадель / Зулус Шака: Цитадель / Shaka Zulu: The Citadel [Приключения, драма, 2001] SATRip, Mvo

salma3

149 | 37

2.74 ГБ

В этой теме нет новых непрочитанных сообщений. 28 панфиловцев [военный, драма, 2016] BDRip 720p, Dub [iPad] [Лицензия]

salma3

0 | 0

2.39 ГБ

В этой теме нет новых непрочитанных сообщений. Храброе сердце / Braveheart [драма, военный, биография, история, 1995] BDRip 720p, Dub [iPad]

salma3

10 | 1

4.92 ГБ

В этой теме нет новых непрочитанных сообщений. Зло под солнцем / Evil Under the Sun [драма, детектив, 1982] BDRip 1080p, Mvo

salma3

5 | 9

7.98 ГБ

В этой теме нет новых непрочитанных сообщений. Впусти меня. Сага / Let Me In [ужасы, фэнтези, драма, 2010] BDRip 720p, Dub [iPad]

salma3

0 | 0

1.42 ГБ


Начать новую тему Ответить на тему  [ 1 сообщение ] 




Для Мосгорсуда, Роскомнадзора и рекламодателей:: mosgorsud-torrent[собачка]yandex.ru
cron