Торрент файл
скачать торрент магнет ссылка Добавлен: 05 янв 2013, 22:42
Размер: 1.75 ГБ
Сидеров: 2
Личеров: 4
Автор

СообщениеДобавлено: 05 янв 2013, 22:42 

Не в сети
Супермодератор
Аватара пользователя
Дата регистрации:
11 апр 2010, 18:10
Спасибо: 5995 / 7
Сообщения: 56685
id="p-25224744-1">Срочная доставка / Premium Rush
«Ride Like Hell»
Год выпуска: 2012
Страна: США
Студия: Pariah
Жанр: Боевик, триллер
Продолжительность: 01:30:57
Рейтинг MPAA: PG-13
Перевод: Профессиональный (многоголосый закадровый)
Оригинальная аудиодорожка: есть
Cубтитры: русские и английские
Режиссёр: Дэвид Кепп/ David Koepp
Сценарий: Дэвид Кепп, Джон Кэмпс
Продюссер: Гэвин Полон, Мэри-Джо Уинклер
В ролях: Джозеф Гордон-Левитт, Дания Рамирес, Шон Кеннеди, Ким Перфетто, Энтони Чишолм, Эшли Остин Моррис, Уоли Паркс, Кевин Болджер, Аасиф Мандви, Лорен Эшли Картер, Чарльз Борланд, Майкл Шеннон, Аарон Твейт, Джейми Чунг, Крис Плэйс, Эми Хон, Дуглас С. Уильямс, Себастьян Лакос, Ник Дамичи, Келвин Вуи, Генри Кван, Кинэн Люн, Нэнси Энг, Брайан Коппельман, Хун Ли, Джимми П. Вонг, Кенни Вонг, Джейд Ву, Лиман Чен, Тони Ченг, Дарлен Вайолетт, Генри О, Тед Сод, Карси Уолкер мл., Мэттью Ройч, Майкл-Леон Вули, Виктор Чан, П.Дж. Соско, Джерри Уолш, Рут Чжан, Бойун Ванг, Ричард Хсю, Марио Д’Леон, Вэй Чинг Хо, Сабрина Лотт
Описание:
Нью-йоркский посыльный в один прекрасный день забирает некий конверт в Колумбийском университете. Но оказывается, что содержимое послания очень интересует одного коррумпированного полицейского, который начинает преследование героя.
Доп. информация:

Качество исходника: BDRemux - Срочная доставка / Premium Rush / 2012 / ПМ, СТ / Blu-Ray Remux (1080p)
Качество: BDRip
Разрешение:1024х432
Формат: MP4
Видео: H.264, 2,40:1 , 2500kbit/s; 23.976fps
Аудио: Russian/MVO, AAC, 126kbit/s; 2ch; 48KHz
Аудио №2: English/Original, AAC, 126kbit/s; 2ch; 48KHz
iTunes Meta Tags
Код:
XID: Apple:vendor_id:2012-489415
contentID: 571420439
Screenwriters: Дэвид Кепп, Джон Кэмпс
Producers: Гэвин Полон, Мэри-Джо Уинклер
Director: Дэвид Кепп
Cast: Джозеф Гордон-Левитт, Дания Рамирес, Шон Кеннеди, Ким Перфетто, Энтони Чишолм, Эшли Остин Моррис, Уоли Паркс, Кевин Болджер, Аасиф Мандви, Лорен Эшли Картер, Чарльз Борланд, Майкл Шеннон
Rating: 4
Long Description: Нью-йоркский посыльный в один прекрасный день забирает некий конверт в Колумбийском университете. Но оказывается, что содержимое послания очень интересует одного коррумпированного полицейского, который начинает преследование героя.
Description: Нью-йоркский посыльный в один прекрасный день забирает некий конверт в Колумбийском университете.
Release Date: 2012-08-23T15:00:00Z
Genre:Action & Adventure
Artist: Дэвид Кепп
Name:Срочная доставка
MediaInfo
Код:
General
Complete name: /Users/imac/HandBrake/Premium.Rush.2012.x264.BDRip.1024x.m4v
Format: MPEG-4
Codec ID: M4V
File size: 1.75 GiB
Duration: 1h 30mn
Overall bit rate mode: Variable
Overall bit rate: 2 761 Kbps
Movie name:Срочная доставка
Performer: Дэвид Кепп
Genre:Action & Adventure
Recorded date: UTC 2012-08-23 15:00:00
Encoded date: UTC 2012-11-30 10:12:52
Tagged date: UTC 2012-11-30 10:14:37
Cover: Yes
desc: Нью-йоркский посыльный в один прекрасный день забирает некий конверт в Колумбийском университете.
ldes: Нью-йоркский посыльный в один прекрасный день забирает некий конверт в Колумбийском университете. Но оказывается, что содержимое послания очень интересует одного коррумпированного полицейского, который начинает преследование героя.
stik: 9
rtng: 0
cnID: 571420439
xid: Apple:vendor_id:2012-489415
iTunEXTC: mpaa|PG-13|300|
iTunMOVI: <?xml version="1.0" encoding="UTF-8"?> / <!DOCTYPE plist PUBLIC "-/Apple/DTD PLIST 1.0/EN" "http://www.apple.com/DTDs/PropertyList-1.0.dtd"> / <plist version="1.0"> / <dict> /<key>cast</key> /<array> /<dict> /<key>name</key> /<string>Джозеф Гордон-Левитт</string> /</dict> /<dict> /<key>name</key> /<string>Дания Рамирес</string> /</dict> /<dict> /<key>name</key> /<string>Шон Кеннеди</string> /</dict> /<dict> /<key>name</key> /<string>Ким Перфетто</string> /</dict> /<dict> /<key>name</key> /<string>Энтони Чишолм</string> /</dict> /<dict> /<key>name</key> /<string>Эшли Остин Моррис</string> /</dict> /<dict> /<key>name</key> /<string>Уоли Паркс</string> /</dict> /<dict> /<key>name</key> /<string>Кевин Болджер</string> /</dict> /<dict> /<key>name</key> /<string>Аасиф Мандви</string> /</dict> /<dict> /<key>name</key> /<string>Лорен Эшли Картер</string> /</dict> /<dict> /<key>name</key> /<string>Чарльз Борланд</string> /</dict> /<dict> /<key>name</key> /<string>Майкл Шеннон</string> /</dict> /</array> /<key>directors</key> /<array> /<dict> /<key>name</key> /<string>Дэвид Кепп</string> /</dict> /</array> /<key>producers</key> /<array> /<dict> /<key>name</key> /<string>Гэвин Полон</string> /</dict> /<dict> /<key>name</key> /<string>Мэри-Джо Уинклер</string> /</dict> /</array> /<key>screenwriters</key> /<array> /<dict> /<key>name</key> /<string>Дэвид Кепп</string> /</dict> /<dict> /<key>name</key> /<string>Джон Кэмпс</string> /</dict> /</array> / </dict> / </plist>
Video #1
ID: 1
Format: AVC
Format/Info: Advanced Video Codec
Format profile: [email protected]
Format settings, CABAC: Yes
Format settings, ReFrames: 9 frames
Codec ID: avc1
Codec ID/Info: Advanced Video Coding
Duration: 1h 30mn
Bit rate mode: Variable
Bit rate: 2 500 Kbps
Width: 1 024 pixels
Height: 432 pixels
Display aspect ratio: 2.40:1
Frame rate mode: Variable
Frame rate: 23.976 fps
Minimum frame rate: 23.810 fps
Maximum frame rate: 24.246 fps
Color space: YUV
Chroma subsampling: 4:2:0
Bit depth: 8 bits
Scan type: Progressive
Bits/(Pixel*Frame): 0.236
Stream size: 1.59 GiB (91%)
Writing library: x264 core 120
Encoding settings: cabac=1 / ref=9 / deblock=1:0:0 / analyse=0x3:0x113 / me=umh / subme=9 / psy=1 / psy_rd=1.00:0.00 / mixed_ref=1 / me_range=32 / chroma_me=1 / trellis=1 / 8x8dct=1 / cqm=0 / deadzone=21,11 / fast_pskip=1 / chroma_qp_offset=-2 / threads=12 / sliced_threads=0 / nr=0 / decimate=1 / interlaced=0 / bluray_compat=0 / constrained_intra=0 / bframes=6 / b_pyramid=2 / b_adapt=2 / b_bias=0 / direct=1 / weightb=1 / open_gop=0 / weightp=2 / keyint=240 / keyint_min=24 / scenecut=40 / intra_refresh=0 / rc_lookahead=40 / rc=2pass / mbtree=1 / bitrate=2500 / ratetol=1.0 / qcomp=0.60 / qpmin=3 / qpmax=69 / qpstep=4 / cplxblur=20.0 / qblur=0.5 / ip_ratio=1.40 / aq=1:1.00
Language: English
Encoded date: UTC 2012-11-30 10:12:52
Tagged date: UTC 2012-11-30 10:14:14
Color primaries: BT.709-5, BT.1361, IEC 61966-2-4, SMPTE RP177
Transfer characteristics: BT.709-5, BT.1361
Matrix coefficients: BT.709-5, BT.1361, IEC 61966-2-4 709, SMPTE RP177
Video #2
ID: 7
Format: JPEG
Codec ID: jpeg
Duration: 1h 30mn
Bit rate mode: Variable
Bit rate: 1 233 bps
Width: 640 pixels
Height: 270 pixels
Display aspect ratio: 2.40:1
Frame rate mode: Variable
Frame rate: 0.003 fps
Minimum frame rate: 0.002 fps
Maximum frame rate: 0.006 fps
Color space: YUV
Chroma subsampling: 4:2:0
Bit depth: 8 bits
Compression mode: Lossy
Bits/(Pixel*Frame): 2.378
Stream size: 803 KiB (0%)
Language: English
Encoded date: UTC 2012-11-30 10:14:37
Tagged date: UTC 2012-11-30 10:14:37
Audio #1
ID: 2
Format: AAC
Format/Info: Advanced Audio Codec
Format profile: LC
Codec ID: 40
Duration: 1h 30mn
Bit rate mode: Variable
Bit rate: 126 Kbps
Maximum bit rate: 193 Kbps
Channel(s): 2 channels
Channel positions: Front: L R
Sampling rate: 48.0 KHz
Compression mode: Lossy
Stream size: 81.8 MiB (5%)
Language: Russian
Encoded date: UTC 2012-11-30 10:12:52
Tagged date: UTC 2012-11-30 10:14:21
Audio #2
ID: 3
Format: AAC
Format/Info: Advanced Audio Codec
Format profile: LC
Codec ID: 40
Duration: 1h 30mn
Bit rate mode: Variable
Bit rate: 126 Kbps
Maximum bit rate: 196 Kbps
Channel(s): 2 channels
Channel positions: Front: L R
Sampling rate: 48.0 KHz
Compression mode: Lossy
Stream size: 82.0 MiB (5%)
Language: English
Encoded date: UTC 2012-11-30 10:12:52
Tagged date: UTC 2012-11-30 10:14:28
Text #1
ID: 4
Format: Timed text
Muxing mode: sbtl
Codec ID: tx3g
Duration: 1h 25mn
Bit rate mode: Variable
Bit rate: 96 bps
Stream size: 60.2 KiB (0%)
Language: Russian
Encoded date: UTC 2012-11-30 10:12:52
Tagged date: UTC 2012-11-30 10:14:28
Text #2
ID: 5
Format: Timed text
Muxing mode: sbtl
Codec ID: tx3g
Duration: 1h 25mn
Bit rate mode: Variable
Bit rate: 61 bps
Stream size: 38.2 KiB (0%)
Language: English
Encoded date: UTC 2012-11-30 10:12:52
Tagged date: UTC 2012-11-30 10:14:28
Text #3
ID: 6
Format: Apple text
Codec ID: text
Duration: 1h 30mn
Bit rate mode: Constant
Bit rate: 1 bps
Stream size: 384 Bytes (0%)
Language: English
Encoded date: UTC 2012-11-30 10:14:28
Tagged date: UTC 2012-11-30 10:14:28
Menu
00:00:00.000: Chapter 00
00:05:43.384: Chapter 01
00:10:33.757: Chapter 02
00:19:39.927: Chapter 03
00:22:41.483: Chapter 04
00:28:54.188: Chapter 05
00:33:01.643: Chapter 06
00:37:37.252: Chapter 07
00:44:25.493: Chapter 08
00:50:52.838: Chapter 09
00:55:17.852: Chapter 10
00:58:40.679: Chapter 11
01:02:11.014: Chapter 12
01:09:15.312: Chapter 13
01:15:52.834: Chapter 14
01:22:29.939: Chapter 15
x264 лог
Код:
x264 [info]: frame I:1203Avg QP:16.72size: 80753PSNR Mean Y:46.02 U:48.09 V:49.73 Avg:46.76 Global:46.26
x264 [info]: frame P:35841 Avg QP:20.10  size: 25063PSNR Mean Y:43.71 U:46.57 V:48.37 Avg:44.59 Global:43.86
x264 [info]: frame B:93804 Avg QP:22.52size:7568PSNR Mean Y:42.66 U:46.11 V:48.16 Avg:43.66 Global:42.88
x264 [info]: consecutive B-frames:3.8%7.0%9.8% 51.7% 10.6% 11.9%5.3%
x264 [info]: mb II16..4: 10.2% 61.5% 28.3%
x264 [info]: mb PI16..4:1.8% 12.2%4.1%P16..4: 31.9% 24.6% 14.7%0.0%0.0%skip:10.7%
x264 [info]: mb BI16..4:0.2%1.3%0.6%B16..8: 41.6% 11.6%3.9%direct: 4.1%skip:36.7%L0:41.7% L1:47.0% BI:11.4%
x264 [info]: 8x8 transform intra:65.9% inter:66.0%
x264 [info]: coded y,uvDC,uvAC intra: 87.4% 83.1% 56.5% inter: 29.9% 24.6% 4.6%
x264 [info]: i16 v,h,dc,p: 31% 27%6% 36%
x264 [info]: i8 v,h,dc,ddl,ddr,vr,hd,vl,hu:8% 12%3% 10% 15% 13% 16% 10% 14%
x264 [info]: i4 v,h,dc,ddl,ddr,vr,hd,vl,hu:8% 13%2%8% 14% 13% 16% 10% 16%
x264 [info]: i8c dc,h,v,p: 36% 29% 18% 17%
x264 [info]: Weighted P-Frames: Y:2.1% UV:0.9%
x264 [info]: ref P L0: 53.6% 15.3% 13.3%5.1%3.9%3.0%2.6%1.5%1.5%0.2%0.0%
x264 [info]: ref B L0: 82.0%8.8%4.0%1.9%1.4%1.1%0.6%0.3%
x264 [info]: ref B L1: 94.4%5.6%
x264 [info]: SSIM Mean Y:0.9752619 (16.066db)
x264 [info]: PSNR Mean Y:42.978 U:46.255 V:48.230 Avg:43.947 Global:43.150 kb/s:2499.79
Скриншоты



Вернуться к началу
 Профиль Отправить личное сообщение  
 
   Похожие торренты   Автор   Торрент   Размер 
В этой теме нет новых непрочитанных сообщений. Мордекай / Mortdecai (Дэвид Кепп) [боевик, комедия, 2015] BDRip-AVC, Dub

Dracon

1864 | 44

2.19 ГБ

В этой теме нет новых непрочитанных сообщений. Мордекай / Mortdecai (Дэвид Кепп) [боевик, комедия, 2015] BDRip 720p, Dub

Dracon

3077 | 168

5.81 ГБ

В этой теме нет новых непрочитанных сообщений. Мордекай / Mortdecai (Дэвид Кепп) [боевик, комедия, 2015] BDRip 1080p, Dub

Dracon

2646 | 305

11.68 ГБ

В этой теме нет новых непрочитанных сообщений. Мордекай / Mortdecai (Дэвид Кепп) [боевик, комедия, 2015] HDRip, Dub

Dracon

15657 | 730

1.46 ГБ

В этой теме нет новых непрочитанных сообщений. Мордекай / Mortdecai (Дэвид Кепп) [боевик, комедия, 2015] HDRip, Dub

Dracon

4180 | 189

2.05 ГБ

В этой теме нет новых непрочитанных сообщений. Мордекай / Mortdecai (Дэвид Кепп) [боевик, комедия, 2015] BDRemux 1080p, Dub

Dracon

313 | 52

29.65 ГБ

В этой теме нет новых непрочитанных сообщений. Коллекционер 2 / The Collection [ужасы, боевик, триллер, 2012] BDRip 720p, Dub [iPad]

salma3

0 | 0

1.73 ГБ


Начать новую тему Ответить на тему  [ 1 сообщение ] 




Для Мосгорсуда, Роскомнадзора и рекламодателей:: mosgorsud-torrent[собачка]yandex.ru
cron