Торрент файл
скачать торрент магнет ссылка Добавлен: 05 янв 2013, 22:41
Размер: 3.4 ГБ
Сидеров: 1
Личеров: 3
Автор

СообщениеДобавлено: 05 янв 2013, 22:41 

Не в сети
Супермодератор
Аватара пользователя
Дата регистрации:
11 апр 2010, 18:10
Спасибо: 5995 / 7
Сообщения: 56685
id="p-25224744-1">
Мумия возвращается / The Mummy Returns«Adventure Is Reborn»


Страна: США
Жанр: фэнтези, боевик, приключения
Год выпуска: 2001

Перевод #1: Профессиональный (полное дублирование)
Перевод #2: Профессиональный (многоголосый, закадровый)
Оригинальная аудиодорожка: Английский
Cубтитры: Русские, Английские
Режиссер: Стивен Соммерс / Stephen Sommers

В ролях: Брендан Фрейзер (Richard 'Rick' O'Connell,), Рейчел Вайс (Evelyn Carnahan O'Connell, Princess Nefertiri), Джон Ханна (Jonathan Carnahan,), Арнольд Вослу (High Priest Imhotep), Одед Фер (Ardeth Bay), Дуэйн Джонсон (Mathayus the Scorpion King), Фредди Боат (Alexander 'Alex' O'Connell), Патрисия Веласкес (Meela Nais, Anck Su Namun), Алан Армстронг (Baltus Hafez), Адевале Акиннуойе-Агбадже (Lock-Nah), Шон Паркес (Izzy Buttons), Брюс Байрон (Red)
Дублёры: Олег Куценко (Richard 'Rick' O'Connell), Алена Ивченко (Evelyn Carnahan O'Connell, Princess Nefertiri), Никита Прозоровский (Jonathan Carnahan), Валерий Сторожик (Ardeth Bay), Дальвин Щербаков (Baltus Hafez), Виктор Бохон (Lock-Nah), Вадим Андреев (Izzy Buttons), Александр Клюквин (Red), Вячеслав Баранов (Spivey)

Описание: Прошло десять лет… Наш отважный герой, искатель приключений Рик О`Конелл, теперь богат, счастливо женат на прекрасной Эвелин и воспитывает своего восьмилетнего сына Алекса.
Но злой рок не дает очаровательной семье О`Конеллов насладиться спокойной жизнью. Зловещий жрец Имхотеп снова восстал из мертвых! Теперь у Рика, Эвелин и малютки Алекса есть всего семь дней, чтобы спасти мир…
Рейтинг
imdb.com: 6.20 (99 143)
MPAA: PG-13 - Детям до 13 лет просмотр не желателен
Качество видео: BDRip - Исходник BD Remux
Формат видео: m4v
Видео кодек: H.264
Аудио кодек: AAC
Видео: 1280х544 (2.35:1), 23,976 fps, H.264 3200 kbps avg, 0.192 bit/pixel
Аудио #1: Russian, 48,0 kHz, AAC LC, 2 ch, 185 kbps avg | DUB
Аудио #2: Russian, 48,0 kHz, AAC LC, 2 ch, 181 kbps avg | MVO
Аудио #3: English, 48,0 kHz, AAC LC, 2 ch, 192 kbps avg | Original
MediaInfo
Код:
Код:
General
Complete name                            : D:\NEW\Mummy 2\Mummy.2.2001.BDRip.m4v
Format                                   : MPEG-4
Codec ID                                 : M4V
File size                                : 3.40 GiB
Duration                                 : 2h 9mn
Overall bit rate mode                    : Variable
Overall bit rate                         : 3 762 Kbps
Movie name                               : Мумия возвращается
Performer                                : Стивен Соммерс
Genre                                    : фэнтези, боевик, приключения
Recorded date                            : UTC 2001-04-29 07:00:00
Encoded date                             : UTC 2012-01-19 16:37:42
Tagged date                              : UTC 2012-01-20 16:45:12
Writing application                      : MkvToMp4 [www.mkvtomp4.ru] version 0.218
Cover                                    : Yes
desc                                     : Прошло десять лет… Наш отважный герой, искатель приключений Рик О`Конелл, теперь богат, счастливо женат на прекрасной Эвелин и воспитывает своего восьмилетнего сына Алекса.
ldes                                     : Прошло десять лет… Наш отважный герой, искатель приключений Рик О`Конелл, теперь богат, счастливо женат на прекрасной Эвелин и воспитывает своего восьмилетнего сына Алекса. Но злой рок не дает очаровательной семье О`Конеллов насладиться спокойной жизнью. Зловещий жрец Имхотеп снова восстал из мертвых! Теперь у Рика, Эвелин и малютки Алекса есть всего семь дней, чтобы спасти мир…
hdvd                                     : 1
stik                                     : 9
cnID                                     : 280025690
xid                                      : iPad:vendor_id:2001-760
iTunEXTC                                 : mpaa|PG-13|300|
iTunMOVI                                 : <?xml version="1.0" encoding="UTF-8"?> / <!DOCTYPE plist PUBLIC "-/Apple/DTD PLIST 1.0/EN" "http:/www.apple.com/DTDs/PropertyList-1.0.dtd"> / <plist version="1.0"> /  <dict> /   <key>cast</key> /   <array> /    <dict> /     <key>name</key> /     <string>Брендан Фрейзер</string> /    </dict> /    <dict> /     <key>name</key> /     <string>Рейчел Вайс</string> /    </dict> /    <dict> /     <key>name</key> /     <string>Джон Ханна</string> /    </dict> /    <dict> /     <key>name</key> /     <string>Арнольд Вослу</string> /    </dict> /    <dict> /     <key>name</key> /     <string>Одед Фер</string> /    </dict> /    <dict> /     <key>name</key> /     <string>Дуэйн Джонсон</string> /    </dict> /    <dict> /     <key>name</key> /     <string>Фредди Боат</string> /    </dict> /    <dict> /     <key>name</key> /     <string>Патрисия Веласкес</string> /    </dict> /    <dict> /     <key>name</key> /     <string>Алан Армстронг</string> /    </dict> /    <dict> /     <key>name</key> /     <string>Адевале Акиннуойе-Агбадже</string> /    </dict> /   </array> /   <key>directors</key> /   <array> /    <dict> /     <key>name</key> /     <string>Стивен Соммерс</string> /    </dict> /   </array> /   <key>producers</key> /   <array> /    <dict> /     <key>name</key> /     <string>Шон Дэниэл</string> /    </dict> /    <dict> /     <key>name</key> /     <string>Боб Дюксэй</string> /    </dict> /    <dict> /     <key>name</key> /     <string>Джеймс Джекс</string> /    </dict> /   </array> /   <key>screenwriters</key> /   <array> /    <dict> /     <key>name</key> /     <string>Стивен Соммерс</string> /    </dict> /   </array> /  </dict> / </plist>
Video
ID                                       : 1
Format                                   : AVC
Format/Info                              : Advanced Video Codec
Format profile                           : [email protected]
Format settings, CABAC                   : Yes
Format settings, ReFrames                : 10 frames
Codec ID                                 : avc1
Codec ID/Info                            : Advanced Video Coding
Duration                                 : 2h 9mn
Bit rate                                 : 3 200 Kbps
Maximum bit rate                         : 17.5 Mbps
Width                                    : 1 280 pixels
Height                                   : 544 pixels
Display aspect ratio                     : 2.35:1
Frame rate mode                          : Variable
Frame rate                               : 23.976 fps
Minimum frame rate                       : 23.969 fps
Maximum frame rate                       : 24.038 fps
Color space                              : YUV
Chroma subsampling                       : 4:2:0
Bit depth                                : 8 bits
Scan type                                : Progressive
Bits/(Pixel*Frame)                       : 0.192
Stream size                              : 2.89 GiB (85%)
Writing library                          : x264 core 112
Encoding settings                        : cabac=1 / ref=10 / deblock=1:-2:-1 / analyse=0x3:0x113 / me=umh / subme=9 / psy=1 / psy_rd=1.00:0.00 / mixed_ref=1 / me_range=32 / chroma_me=1 / trellis=2 / 8x8dct=1 / cqm=0 / deadzone=21,11 / fast_pskip=1 / chroma_qp_offset=-2 / threads=12 / sliced_threads=0 / nr=0 / decimate=1 / interlaced=0 / constrained_intra=0 / bframes=9 / b_pyramid=2 / b_adapt=1 / b_bias=0 / direct=1 / weightb=1 / open_gop=0 / weightp=2 / keyint=240 / keyint_min=23 / scenecut=40 / intra_refresh=0 / rc_lookahead=40 / rc=2pass / mbtree=1 / bitrate=3200 / ratetol=1.0 / qcomp=0.60 / qpmin=3 / qpmax=51 / qpstep=4 / cplxblur=20.0 / qblur=0.5 / ip_ratio=1.40 / aq=1:1.00
Language                                 : English
Encoded date                             : UTC 2012-01-19 16:37:42
Tagged date                              : UTC 2012-01-19 16:39:39
Color primaries                          : BT.709-5, BT.1361, IEC 61966-2-4, SMPTE RP177
Transfer characteristics                 : BT.709-5, BT.1361
Matrix coefficients                      : BT.709-5, BT.1361, IEC 61966-2-4 709, SMPTE RP177
Audio #1
ID                                       : 2
Format                                   : AAC
Format/Info                              : Advanced Audio Codec
Format profile                           : LC
Codec ID                                 : 40
Duration                                 : 2h 9mn
Bit rate mode                            : Variable
Bit rate                                 : 185 Kbps
Maximum bit rate                         : 239 Kbps
Channel(s)                               : 2 channels
Channel positions                        : Front: L R
Sampling rate                            : 48.0 KHz
Compression mode                         : Lossy
Stream size                              : 172 MiB (5%)
Title                                    : DUB
Language                                 : Russian
Encoded date                             : UTC 2012-01-19 16:38:54
Tagged date                              : UTC 2012-01-19 16:39:39
Audio #2
ID                                       : 3
Format                                   : AAC
Format/Info                              : Advanced Audio Codec
Format profile                           : LC
Codec ID                                 : 40
Duration                                 : 2h 9mn
Bit rate mode                            : Variable
Bit rate                                 : 181 Kbps
Maximum bit rate                         : 239 Kbps
Channel(s)                               : 2 channels
Channel positions                        : Front: L R
Sampling rate                            : 48.0 KHz
Compression mode                         : Lossy
Stream size                              : 168 MiB (5%)
Title                                    : MVO
Language                                 : Russian
Encoded date                             : UTC 2012-01-19 16:39:04
Tagged date                              : UTC 2012-01-19 16:39:39
Audio #3
ID                                       : 4
Format                                   : AAC
Format/Info                              : Advanced Audio Codec
Format profile                           : LC
Codec ID                                 : 40
Duration                                 : 2h 9mn
Bit rate mode                            : Variable
Bit rate                                 : 192 Kbps
Maximum bit rate                         : 255 Kbps
Channel(s)                               : 2 channels
Channel positions                        : Front: L R
Sampling rate                            : 48.0 KHz
Compression mode                         : Lossy
Stream size                              : 175 MiB (5%)
Title                                    : Original
Language                                 : English
Encoded date                             : UTC 2012-01-19 16:39:18
Tagged date                              : UTC 2012-01-19 16:39:39
Text #1
ID                                       : 5
Format                                   : Timed text
Muxing mode                              : sbtl
Codec ID                                 : tx3g
Duration                                 : 2h 1mn
Bit rate mode                            : Variable
Bit rate                                 : 61 bps
Stream size                              : 54.3 KiB (0%)
Language                                 : Russian
Encoded date                             : UTC 2012-01-19 16:39:39
Tagged date                              : UTC 2012-01-19 16:39:39
Text #2
ID                                       : 6
Format                                   : Timed text
Muxing mode                              : sbtl
Codec ID                                 : tx3g
Duration                                 : 2h 1mn
Bit rate mode                            : Variable
Bit rate                                 : 36 bps
Stream size                              : 32.1 KiB (0%)
Language                                 : English
Encoded date                             : UTC 2012-01-19 16:39:39
Tagged date                              : UTC 2012-01-19 16:39:39

x264 log
Код:
Код:
x264 [info]: frame I:3460  Avg QP:15.76  size: 67828  PSNR Mean Y:48.20 U:50.34 V:51.14 Avg:48.88 Global:48.55
x264 [info]: frame P:102716 Avg QP:18.51  size: 22966  PSNR Mean Y:46.09 U:48.79 V:49.49 Avg:46.87 Global:46.46
x264 [info]: frame B:80160 Avg QP:20.47  size:  6411  PSNR Mean Y:45.84 U:48.80 V:49.48 Avg:46.65 Global:46.19
x264 [info]: consecutive B-frames: 30.4% 33.9%  8.9% 12.1% 12.6%  1.9%  0.1%  0.0%  0.0%  0.1%
x264 [info]: mb I  I16..4:  6.4% 82.6% 11.0%
x264 [info]: mb P  I16..4:  1.4%  7.8%  0.8%  P16..4: 46.8% 24.0% 12.1%  0.0%  0.0%    skip: 7.0%
x264 [info]: mb B  I16..4:  0.1%  0.3%  0.1%  B16..8: 42.9%  7.9%  1.9%  direct: 4.0%  skip:42.8%  L0:40.9% L1:48.3% BI:10.8%
x264 [info]: 8x8 transform intra:78.7% inter:65.4%
x264 [info]: coded y,uvDC,uvAC intra: 82.5% 82.2% 50.2% inter: 29.5% 30.7% 2.5%
x264 [info]: i16 v,h,dc,p: 30% 16% 10% 45%
x264 [info]: i8 v,h,dc,ddl,ddr,vr,hd,vl,hu:  9%  7%  4% 10% 16% 15% 14% 13% 13%
x264 [info]: i4 v,h,dc,ddl,ddr,vr,hd,vl,hu:  8%  6%  3% 10% 17% 16% 15% 12% 13%
x264 [info]: i8c dc,h,v,p: 40% 24% 19% 17%
x264 [info]: Weighted P-Frames: Y:7.8% UV:6.5%
x264 [info]: ref P L0: 54.3% 11.6% 14.1%  5.5%  4.1%  3.0%  2.5%  1.5%  1.4%  1.2%  0.7%  0.1%
x264 [info]: ref B L0: 79.1% 10.0%  4.5%  2.2%  1.5%  1.1%  0.9%  0.5%  0.1%
x264 [info]: ref B L1: 95.4%  4.6%
x264 [info]: SSIM Mean Y:0.9835447 (17.837db)
x264 [info]: PSNR Mean Y:46.021 U:48.820 V:49.521 Avg:46.808 Global:46.371 kb/s:3198.79

Скриншоты

Скриншоты с iPad




Вернуться к началу
 Профиль Отправить личное сообщение  
 
   Похожие торренты   Автор   Торрент   Размер 
В этой теме нет новых непрочитанных сообщений. Мумия возвращается / The Mummy Returns [фэнтези, боевик, приключения, 2001] BDRip, Dub

salma3

0 | 0

2.18 ГБ

В этой теме нет новых непрочитанных сообщений. Мумия возвращается / The Mummy Returns [фэнтези, боевик, приключения, 2001] BDRip, Dub

salma3

11 | 2

1.46 ГБ

В этой теме нет новых непрочитанных сообщений. Мумия возвращается / The Mummy Returns [фэнтези, боевик, триллер, 2001] HDRip, Dub+Sub

salma3

115 | 27

1.45 ГБ

В этой теме нет новых непрочитанных сообщений. Мумия возвращается / The Mummy Returns [фэнтези, боевик, триллер, 2001] HD-DVDRip-HEVC 1080p, Mvo

salma3

10 | 5

5.96 ГБ

В этой теме нет новых непрочитанных сообщений. Мумия возвращается / The Mummy Returns [Приключения, ужасы, 2001] BDRemux 2160p, Dub [4K]

salma3

24 | 16

57.74 ГБ

В этой теме нет новых непрочитанных сообщений. Мумия / The Mummy [фэнтези, боевик, приключения, 1999] BDRip, Mvo

salma3

20 | 4

1.45 ГБ

В этой теме нет новых непрочитанных сообщений. Мумия / The Mummy [Ужасы, фэнтези, боевик, приключения, 2017] WEBRip-AVC-720p, Dub [Трейлер]

salma3

1650 | 122

78.88 МБ


Начать новую тему Ответить на тему  [ 1 сообщение ] 




Для Мосгорсуда, Роскомнадзора и рекламодателей:: mosgorsud-torrent[собачка]yandex.ru
cron
cron