Торрент файл
скачать торрент магнет ссылка Добавлен: 05 янв 2013, 22:41
Размер: 2.07 ГБ
Сидеров: 5
Личеров: 6
Автор

СообщениеДобавлено: 05 янв 2013, 22:41 

Не в сети
Супермодератор
Аватара пользователя
Дата регистрации:
11 апр 2010, 18:10
Спасибо: 5995 / 7
Сообщения: 56685
id="p-25224744-1">Перевозчик 3 / Transporter 3«This time, the rules are the same. Except one.»

Страна: Франция, Великобритания
Жанр: боевик, триллер, криминал, приключения
Год выпуска: 2008
Продолжительность: 01:43:58
Перевод: Профессиональный (полное дублирование)
Cубтитры: есть
Оригинальная аудиодорожка: английский
Режиссер: Оливье Мегатон
Сценарий: Люк Бессон, Роберт Марк Кэмен
Продюсер: Люк Бессон, Стив Чэсмэн
В ролях: Джейсон Стэтхэм, Наталья Рудакова, Франсуа Берлеан, Роберт Нэппер, Ерун Краббе, Алекс Коболд, Дэвид Атракчи, Ян Сандберг, Эрик Эбони, Дэвид Камменос
Описание: После своих последних приключений в Майами, Фрэнк Мартин решил поменять работу «перевозчика» на спокойную и уединенную жизнь во французской Ривьере. Но его планам не суждено было сбыться, когда к нему обратился бывший солдат из отряда «Дельта» Йонас Джонсон. Он рассказал, что по заказу корпорации «Ecocorp», занимающейся переработкой и утилизацией отходов, похищена Валентина — дочь украинского министра по охране окружающей среды Леонида Фазилева — чтобы путем вымогательства получить официальное разрешение для утилизации ядовитых отходов в Украине.
Теперь задача героя — доставить Валентину через Европу в Одессу. Чтобы обеспечить выполнение задания, Джонсон одевает Фрэнку и Валентине электронные браслеты, которые могут взорваться, если их обладатели удаляются на 20 метров от автомобиля. Выполняя это задание, главному герою придется столкнуться с новыми опасностями, которые связаны не только с его заказом…
Качество: BDRip
Исходник: BDRip
Формат: m4v
Видео кодек: H.264
Аудио кодек: AAC
Видео: 1280х544, 2596 Kbps, 23,976 fps
Аудио RUS: 48 kHz, AAC, 2ch, 170 kbps - Профессиональный (полное дублирование)
Аудио ENG: 48 kHz, AAC, 2ch, 177 kbps - Оригинал
MediaInfo
Код:
Код:
Полное имя : E:\рипы\Transporter 3_new.m4v
Формат : MPEG-4
Идентификатор кодека : M4V
Размер файла : 2,07 Гбайт
Продолжительность : 1 ч. 44 м.
Общий поток : 2842 Кбит/сек
Название фильма : Перевозчик 3
Исполнитель : Olivier Megaton
Жанр : Action & Adventure
Дата записи : 2009-03-10T07:00:00Z
Дата кодирования : UTC 2011-12-15 02:40:15
Дата пометки : UTC 2011-12-16 02:45:05
Обложка : Yes
desc : После своих последних приключений в Майами, Фрэнк Мартин решил поменять работу «перевозчика» на спокойную и уединенную жизнь во французской Ривьере.
ldes : После своих последних приключений в Майами, Фрэнк Мартин решил поменять работу «перевозчика» на спокойную и уединенную жизнь во французской Ривьере. Но его планам не суждено было сбыться, когда к нему обратился бывший солдат из отряда «Дельта» Йонас Джонсон.
hdvd : 1
stik : 9
cnID : 300926023
xid : iPad:vendor_id:2008-409159
iTunEXTC : mpaa|PG-13|300|
iTunMOVI : / / / / cast / / / name / Джейсон Стэтхэм / / / name / Наталья Рудакова / / / name / Франсуа Берлеан / / / name / Роберт Нэппер / / / name / Ерун Краббе / / / name / Алекс Коболд / / / name / Дэвид Атракчи / / / name / Ян Сандберг / / / name / Эрик Эбони / / / name / Дэвид Камменос / / / directors / / / name / Оливье Мегатон / / / producers / / / name / Люк Бессон / / / name / Стив Чэсмэн / / / screenwriters / / / name / Люк Бессон / / / name / Роберт Марк Кэмен / / / /
Видео
Идентификатор : 1
Формат : AVC
Формат/Информация : Advanced Video Codec
Профиль формата : [email protected]
Параметр CABAC формата : Да
Параметр ReFrames формата : 12 кадры
Идентификатор кодека : avc1
Идентификатор кодека/Информация : Advanced Video Coding
Продолжительность : 1 ч. 43 м.
Вид битрейта : Переменный
Битрейт : 2596 Кбит/сек
Максимальный битрейт : 17,3 Мбит/сек
Ширина : 1280 пикс.
Высота : 544 пикс.
Соотношение сторон : 2,35:1
Режим частоты кадров : Постоянный
Частота кадров : 23,976 кадр/сек
Цветовое пространство : YUV
Подвыборка цветности : 4:2:0
Битовая глубина : 8 бит
Тип развёртки : Прогрессивная
Бит/(Пиксели*Кадры) : 0.155
Размер потока : 1,81 Гбайт (87%)
Заголовок : Transporter 3.2008
Библиотека кодирования : x264 core 79 r1342 e8501ef
Настройки программы : cabac=1 / ref=12 / deblock=1:-1:0 / analyse=0x3:0x133 / me=umh / subme=9 / psy=1 / psy_rd=1.0:0.0 / mixed_ref=1 / me_range=48 / chroma_me=1 / trellis=2 / 8x8dct=1 / cqm=0 / deadzone=21,11 / chroma_qp_offset=-2 / threads=6 / nr=0 / decimate=1 / mbaff=0 / constrained_intra=0 / bframes=8 / b_pyramid=0 / b_adapt=2 / b_bias=0 / direct=3 / wpredb=1 / wpredp=2 / keyint=250 / keyint_min=25 / scenecut=40 / rc_lookahead=120 / rc=2pass / mbtree=1 / bitrate=2596 / ratetol=1.0 / qcomp=0.60 / qpmin=10 / qpmax=51 / qpstep=4 / cplxblur=20.0 / qblur=0.5 / ip_ratio=1.40 / aq=1:1.00
Язык : English
Дата кодирования : UTC 2011-12-15 02:40:15
Дата пометки : UTC 2011-12-15 02:42:29
Аудио #1
Идентификатор : 2
Формат : AAC
Формат/Информация : Advanced Audio Codec
Профиль формата : LC
Идентификатор кодека : 40
Продолжительность : 1 ч. 44 м.
Вид битрейта : Переменный
Битрейт : 170 Кбит/сек
Максимальный битрейт : 258 Кбит/сек
Канал(ы) : 2 канала(ов)
Расположение каналов : Front: L R
Частота : 48,0 КГц
Метод сжатия : С потерями
Размер потока : 126 Мбайт (6%)
Заголовок : Russian stereo
Язык : Russian
Дата кодирования : UTC 2011-12-15 02:42:06
Дата пометки : UTC 2011-12-15 02:42:29
Аудио #2
Идентификатор : 3
Формат : AAC
Формат/Информация : Advanced Audio Codec
Профиль формата : LC
Идентификатор кодека : 40
Продолжительность : 1 ч. 43 м.
Вид битрейта : Переменный
Битрейт : 177 Кбит/сек
Максимальный битрейт : 244 Кбит/сек
Канал(ы) : 2 канала(ов)
Расположение каналов : Front: L R
Частота : 48,0 КГц
Метод сжатия : С потерями
Размер потока : 131 Мбайт (6%)
Заголовок : English stereo
Язык : English
Дата кодирования : UTC 2011-12-15 02:42:18
Дата пометки : UTC 2011-12-15 02:42:29
Текст #1
Идентификатор : 4
Формат : Timed text
Режим смешивания : sbtl
Идентификатор кодека : tx3g
Продолжительность : 1 ч. 39 м.
Вид битрейта : Переменный
Битрейт : 72 бит/сек
Размер потока : 51,9 Кбайт (0%)
Язык : Russian
Дата кодирования : UTC 2011-12-15 02:42:29
Дата пометки : UTC 2011-12-15 02:42:29
Текст #2
Идентификатор : 5
Формат : Timed text
Режим смешивания : sbtl
Идентификатор кодека : tx3g
Продолжительность : 1 ч. 37 м.
Вид битрейта : Переменный
Битрейт : 46 бит/сек
Размер потока : 32,6 Кбайт (0%)
Язык : English
Дата кодирования : UTC 2011-12-15 02:42:29
Дата пометки : UTC 2011-12-15 02:42:29

Скриншоты



Вернуться к началу
 Профиль Отправить личное сообщение  
 
   Похожие торренты   Автор   Торрент   Размер 
В этой теме нет новых непрочитанных сообщений. Перевозчик 2 / Transporter 2 / Le Transporteur II [боевик, триллер, криминал, 2005] BDRip 720p, Dub

salma3

0 | 0

7.14 ГБ

В этой теме нет новых непрочитанных сообщений. Перевозчик / The Transporter [боевик, триллер, криминал, 2002] BDRip 720p, Dub [UnCut Version]

salma3

0 | 0

5.12 ГБ

В этой теме нет новых непрочитанных сообщений. Перевозчик: Наследие / The Transporter Refueled [боевик, триллер, криминал, 2015] BDRip 720p, dub+sub [Чистый звук]

salma3

144 | 0

4.5 ГБ

В этой теме нет новых непрочитанных сообщений. Перевозчик: Наследие / The Transporter Refueled (Камиль Деламарр) [боевик, триллер, криминал, 2015] BDRip 720p, Dub [Лицензия]

Dracon

1090 | 161

7.66 ГБ

В этой теме нет новых непрочитанных сообщений. Перевозчик: Наследие / The Transporter Refueled [боевик, триллер, криминал, 2015] BDRip 1080p, dub+sub [Чистый звук]

Dracon

143 | 4

7.78 ГБ

В этой теме нет новых непрочитанных сообщений. Перевозчик: Наследие / The Transporter Refueled (Камиль Деламарр) [боевик, триллер, криминал, 2015] BDRip, Dub [Лицензия]

Dracon

6985 | 486

1.46 ГБ

В этой теме нет новых непрочитанных сообщений. Перевозчик: Наследие / The Transporter Refueled (Камиль Деламарр) [боевик, триллер, криминал, 2015] BDRip 1080p, Dub [Лицензия]

Dracon

510 | 48

10.22 ГБ


Начать новую тему Ответить на тему  [ 1 сообщение ] 




Для Мосгорсуда, Роскомнадзора и рекламодателей:: mosgorsud-torrent[собачка]yandex.ru
cron