Торрент файл
скачать торрент магнет ссылка Добавлен: 05 янв 2013, 22:41
Размер: 3.7 ГБ
Сидеров: 23
Личеров: 9
Автор

СообщениеДобавлено: 05 янв 2013, 22:41 

Не в сети
Супермодератор
Аватара пользователя
Дата регистрации:
11 апр 2010, 18:10
Спасибо: 5995 / 7
Сообщения: 56684
id="p-25224744-1">Один дома / Home Alone

Год выпуска: 1990
Страна: США
Жанр: комедия, приключения, семейный
Продолжительность: 01:42:55
Рейтинг MPAA: PG
Рейтинг КиноПоиск: 8.182
Рейтинг IMDb: 7.2
Перевод: Профессиональный (многоголосый закадровый)
Перевод 2: Профессиональный (многоголосый закадровый) Family Fun Edition
Перевод 3:Профессиональный (многоголосый закадровый) Первый Канал
Оригинальная аудиодорожка: есть
Cубтитры: русские и английские
Режиссёр: Крис Коламбус
Сценарий: Джон Хьюз
Продюссер: Тарквин Готч, Джон Хьюз, Марк Левинсон
В ролях: Маколей Калкин, Джо Пеши, Дэниел Стерн, Джон Хёрд, Кэтрин О’Хара, Робертс Блоссом, Анджела Геталс, Девин Рэтрей, Джерри Бэммен, Хиллари Вульф
Описание:
Американское семейство отправляется из Чикаго в Европу, но в спешке сборов бестолковые родители забывают дома… одного из своих детей. Юное создание, однако, не теряется и демонстрирует чудеса изобретательности. И когда в дом залезают грабители, им приходится не раз пожалеть о встрече с милым крошкой.
Качество исходника: BDRip 1080p
Качество: HDRip
Разрешение: 480p
Формат: M4V
Видео: AVC at 1800 Кбит/сек, 640 x 460 (1.852) at 23.976 fps
Аудио: AAC at 128 Кбит/сек, 2 канала, 48,0 КГц, Многоголосый закадровый, с лицензии
Аудио №2: AAC at 128 Кбит/сек, 2 канала, 48,0 КГц, Многоголосый закадровый, Family Fun Edition
Аудио №3: AAC at 128 Кбит/сек, 2 канала, 48,0 КГц, Иногоголосый закадровый, Первый Канал
Аудио №4: AAC at 128 Кбит/сек, 2 канала, 48,0 КГц, Михалев
Аудио №5: AAC at 128 Кбит/сек, 2 канала, 48,0 КГц, Английский оригинальный
iTunes Meta Tags
Код:
[hr][/hr]Media Type: Movie
XID: Apple:vendor_id:1990-tt0099785
Content ID: 344796733
ScreenWriters: Джон Хьюз
Producers: Тарквин Готч, Джон Хьюз, Марк Левинсон
Director: Крис Коламбус
Cast: Маколей Калкин, Джо Пеши, Дэниел Стерн, Джон Хёрд, Кэтрин О’Хара, Робертс Блоссом, Анджела Геталс, Девин Рэтрей, Джерри Бэммен, Хиллари Вульф
Long Description: Американское семейство отправляется из Чикаго в Европу, но в спешке сборов бестолковые родители забывают дома… одного из своих детей. Юное создание, однако, не теряется и демонстрирует чудеса изобретательности. И когда в дом залезают грабители, им приходится не раз пожалеть о встрече с милым крошкой.
Description: Американское семейство отправляется из Чикаго в Европу, но в спешке сборов бестолковые родители забывают дома… одного из своих детей. Юное создание, однако, не теряется и демонстрирует чудеса изобретательности. И когда в дом залезают грабители, им пр
Release Date: 1990-11-16T08:00:00Z
Genre: Comedy
Artist: Крис Коламбус
Name: Один дома

MediaInfo
Код:
Общее
Полное имя: E:\Home Alone\Home Alone.m4v
Формат: MPEG-4
Идентификатор кодека: M4V
Размер файла: 1,76 Гбайт
Продолжительность: 1 ч. 42 м.
Режим общего битрейта: Переменный
Общий поток: 2446 Кбит/сек
Название фильма: Один дома
Исполнитель: Крис Коламбус
Жанр: Comedy
Дата записи: UTC 1990-11-16 08:00:00
Дата кодирования: UTC 2012-12-13 14:30:30
Дата пометки: UTC 2012-12-13 14:33:46
Программа кодирования: MkvToMp4 [www.mkvtomp4.ru] version 0.222
Обложка: Yes
desc: Американское семейство отправляется из Чикаго в Европу, но в спешке сборов бестолковые родители забывают дома… одного из своих детей. Юное создание, однако, не теряется и демонстрирует чудеса изобретательности. И когда в дом залезают грабители, им пр
ldes: Американское семейство отправляется из Чикаго в Европу, но в спешке сборов бестолковые родители забывают дома… одного из своих детей. Юное создание, однако, не теряется и демонстрирует чудеса изобретательности. И когда в дом залезают грабители, им приходится не раз пожалеть о встрече с милым крошкой.
hdvd: 0
stik: 9
cnID: 344796733
xid: Apple:vendor_id:1990-tt0099785
iTunEXTC: mpaa|PG|200|
iTunMOVI: <?xml version="1.0" encoding="UTF-8"?> / <!DOCTYPE plist PUBLIC "-/Apple/DTD PLIST 1.0/EN" "http://www.apple.com/DTDs/PropertyList-1.0.dtd"> / <plist version="1.0"> /<dict> /<key>cast</key> /<array> /<dict> /<key>name</key> /<string>Маколей Калкин</string> /</dict> /<dict> /<key>name</key> /<string>Джо Пеши</string> /</dict> /<dict> /<key>name</key> /<string>Дэниел Стерн</string> /</dict> /<dict> /<key>name</key> /<string>Джон Хёрд</string> /</dict> /<dict> /<key>name</key> /<string>Кэтрин О’Хара</string> /</dict> /<dict> /<key>name</key> /<string>Робертс Блоссом</string> /</dict> /<dict> /<key>name</key> /<string>Анджела Геталс</string> /</dict> /<dict> /<key>name</key> /<string>Девин Рэтрей</string> /</dict> /<dict> /<key>name</key> /<string>Джерри Бэммен</string> /</dict> /<dict> /<key>name</key> /<string>Хиллари Вульф</string> /</dict> /</array> /<key>directors</key> /<array> /<dict> /<key>name</key> /<string>Крис Коламбус</string> /</dict> /</array> /<key>producers</key> /<array> /<dict> /<key>name</key> /<string>Тарквин Готч</string> /</dict> /<dict> /<key>name</key> /<string>Джон Хьюз</string> /</dict> /<dict> /<key>name</key> /<string>Марк Левинсон</string> /</dict> /</array> /<key>screenwriters</key> /<array> /<dict> /<key>name</key> /<string>Джон Хьюз</string> /</dict> /</array> /</dict> / </plist>
Видео
Идентификатор: 1
Формат: AVC
Формат/Информация: Advanced Video Codec
Профиль формата: [email protected]
Параметр CABAC формата: Нет
Параметр ReFrames формата: 2 кадра
Идентификатор кодека: avc1
Идентификатор кодека/Информация: Advanced Video Coding
Продолжительность: 1 ч. 42 м.
Битрейт: 1800 Кбит/сек
Максимальный битрейт: 8412 Кбит/сек
Ширина: 640 пикселей
Высота: 460 пикселей
Соотношение сторон: 1,85:1
Режим частоты кадров: Переменный
Частота кадров: 23,976 кадра/сек
Минимальная частота кадров: 23,810 кадра/сек
Максимальная частота кадров: 24,390 кадра/сек
Цветовое пространство: YUV
Субдискретизация насыщенности: 4:2:0
Битовая глубина: 8 бит
Тип развёртки: Прогрессивная
Бит/(Пиксели*Кадры): 0.255
Размер потока: 1,29 Гбайт (74%)
Библиотека кодирования: x264 core 120
Настройки программы: cabac=0 / ref=2 / deblock=1:0:0 / analyse=0x1:0x111 / me=umh / subme=8 / psy=1 / psy_rd=1.00:0.00 / mixed_ref=1 / me_range=16 / chroma_me=1 / trellis=0 / 8x8dct=0 / cqm=0 / deadzone=21,11 / fast_pskip=1 / chroma_qp_offset=-2 / threads=6 / sliced_threads=0 / nr=0 / decimate=1 / interlaced=0 / bluray_compat=0 / constrained_intra=0 / bframes=0 / weightp=0 / keyint=240 / keyint_min=24 / scenecut=40 / intra_refresh=0 / rc_lookahead=40 / rc=2pass / mbtree=1 / bitrate=1800 / ratetol=1.0 / qcomp=0.60 / qpmin=3 / qpmax=69 / qpstep=4 / cplxblur=20.0 / qblur=0.5 / ip_ratio=1.40 / aq=1:1.00
Язык: English
Дата кодирования: UTC 2012-12-13 14:30:30
Дата пометки: UTC 2012-12-13 14:31:52
Основные цвета: BT.709
Характеристики трансфера: BT.709
Коэффициенты матрицы: BT.709
Аудио #1
Идентификатор: 2
Формат: AAC
Формат/Информация: Advanced Audio Codec
Профиль формата: LC
Идентификатор кодека: 40
Продолжительность: 1 ч. 42 м.
Вид битрейта: Переменный
Битрейт: 128 Кбит/сек
Максимальный битрейт: 167 Кбит/сек
Каналы: 2 канала
Расположение каналов: Front: L R
Частота: 48,0 КГц
Метод сжатия: С потерями
Размер потока: 94,1 Мбайт (5%)
Заголовок: License
Язык: Russian
Дата кодирования: UTC 2012-12-13 14:31:03
Дата пометки: UTC 2012-12-13 14:31:52
Аудио #2
Идентификатор: 3
Формат: AAC
Формат/Информация: Advanced Audio Codec
Профиль формата: LC
Идентификатор кодека: 40
Продолжительность: 1 ч. 42 м.
Вид битрейта: Переменный
Битрейт: 128 Кбит/сек
Максимальный битрейт: 162 Кбит/сек
Каналы: 2 канала
Расположение каналов: Front: L R
Частота: 48,0 КГц
Метод сжатия: С потерями
Размер потока: 94,1 Мбайт (5%)
Заголовок: Family Fun Edition
Язык: Russian
Дата кодирования: UTC 2012-12-13 14:31:14
Дата пометки: UTC 2012-12-13 14:31:52
Аудио #3
Идентификатор: 4
Формат: AAC
Формат/Информация: Advanced Audio Codec
Профиль формата: LC
Идентификатор кодека: 40
Продолжительность: 1 ч. 42 м.
Вид битрейта: Переменный
Битрейт: 123 Кбит/сек
Максимальный битрейт: 272 Кбит/сек
Каналы: 2 канала
Расположение каналов: Front: L R
Частота: 48,0 КГц
Метод сжатия: С потерями
Размер потока: 90,6 Мбайт (5%)
Заголовок: Первый Канал
Язык: Russian
Дата кодирования: UTC 2012-12-13 14:31:24
Дата пометки: UTC 2012-12-13 14:31:52
Аудио #4
Идентификатор: 5
Формат: AAC
Формат/Информация: Advanced Audio Codec
Профиль формата: LC
Идентификатор кодека: 40
Продолжительность: 1 ч. 42 м.
Вид битрейта: Переменный
Битрейт: 128 Кбит/сек
Максимальный битрейт: 162 Кбит/сек
Каналы: 2 канала
Расположение каналов: Front: L R
Частота: 48,0 КГц
Метод сжатия: С потерями
Размер потока: 94,2 Мбайт (5%)
Заголовок: Михалев
Язык: Russian
Дата кодирования: UTC 2012-12-13 14:31:32
Дата пометки: UTC 2012-12-13 14:31:52
Аудио #5
Идентификатор: 6
Формат: AAC
Формат/Информация: Advanced Audio Codec
Профиль формата: LC
Идентификатор кодека: 40
Продолжительность: 1 ч. 42 м.
Вид битрейта: Переменный
Битрейт: 128 Кбит/сек
Максимальный битрейт: 163 Кбит/сек
Каналы: 2 канала
Расположение каналов: Front: L R
Частота: 48,0 КГц
Метод сжатия: С потерями
Размер потока: 94,2 Мбайт (5%)
Язык: English
Дата кодирования: UTC 2012-12-13 14:31:42
Дата пометки: UTC 2012-12-13 14:31:52
Текст #1
Идентификатор: 7
Формат: Timed text
Режим смешивания: sbtl
Идентификатор кодека: tx3g
Продолжительность: 1 ч. 38 м.
Вид битрейта: Переменный
Битрейт: 89 бит/сек
Размер потока: 64,3 Кбайт (0%)
Язык: Russian
Дата кодирования: UTC 2012-12-13 14:31:52
Дата пометки: UTC 2012-12-13 14:31:52
Текст #2
Идентификатор: 8
Формат: Timed text
Режим смешивания: sbtl
Идентификатор кодека: tx3g
Продолжительность: 1 ч. 38 м.
Вид битрейта: Переменный
Битрейт: 86 бит/сек
Размер потока: 62,5 Кбайт (0%)
Язык: Russian
Дата кодирования: UTC 2012-12-13 14:31:52
Дата пометки: UTC 2012-12-13 14:31:52
Текст #3
Идентификатор: 9
Формат: Timed text
Режим смешивания: sbtl
Идентификатор кодека: tx3g
Продолжительность: 1 ч. 39 м.
Вид битрейта: Переменный
Битрейт: 53 бит/сек
Размер потока: 38,8 Кбайт (0%)
Язык: English
Дата кодирования: UTC 2012-12-13 14:31:52
Дата пометки: UTC 2012-12-13 14:31:52
Текст #4
Идентификатор: 10
Формат: Apple text
Идентификатор кодека: text
Продолжительность: 1 ч. 42 м.
Вид битрейта: Переменный
Битрейт: 1 бит/сек
Размер потока: 567 байт (0%)
Дата кодирования: UTC 2012-12-13 14:33:37
Дата пометки: UTC 2012-12-13 14:33:37

x264 лог
Код:
x264 [info]: frame I:1869Avg QP:15.76size: 50022PSNR Mean Y:47.24 U:51.24 V:51.47 Avg:48.17 Global:47.78
x264 [info]: frame P:146163 Avg QP:17.68size:8860PSNR Mean Y:45.49 U:49.83 V:49.44 Avg:46.33 Global:45.90
x264 [info]: mb II16..4: 16.6%0.0% 83.4%
x264 [info]: mb PI16..4:0.4%0.0%1.7%P16..4: 46.7% 25.3% 10.4%0.0%0.0%skip:15.5%
x264 [info]: coded y,uvDC,uvAC intra: 87.4% 82.7% 59.7% inter: 31.9% 24.9% 3.8%
x264 [info]: i16 v,h,dc,p: 43% 10%8% 39%
x264 [info]: i4 v,h,dc,ddl,ddr,vr,hd,vl,hu: 11%5%3% 13% 17% 18% 12% 13%8%
x264 [info]: i8c dc,h,v,p: 48% 15% 26% 11%
x264 [info]: ref P L0: 74.8% 25.2%
x264 [info]: SSIM Mean Y:0.9843318 (18.050db)
x264 [info]: PSNR Mean Y:45.508 U:49.844 V:49.464 Avg:46.354 Global:45.916 kb/s:1799.13

Скриншоты

Один дома 2: Затерянный в Нью-Йорке / Home Alone 2: Lost in New York

Год выпуска: 1992
Страна: США
Жанр: комедия, приключения, семейный
Продолжительность: 02:00:01
Рейтинг MPAA: PG
Рейтинг КиноПоиск: 7.842
Рейтинг IMDb: 6.2
Перевод: Профессиональный (полное дублирование)
Перевод 2: Профессиональный (многоголосый закадровый)
Перевод 3:Профессиональный (многоголосый закадровый) Новый Канал
Оригинальная аудиодорожка: есть
Cубтитры: русские и английские
Режиссёр: Крис Коламбус
Сценарий: Джон Хьюз
Продюссер: Тарквин Готч, Джон Хьюз, Марк Левинсон
В ролях: Маколей Калкин, Джо Пеши, Дэниел Стерн, Кэтрин О’Хара, Джон Хёрд, Девин Рэтрей, Хиллари Вульф, Морин Элизабет Шэй, Майкл С. Маронна, Джерри Бэммен
Описание:
Самый маленький герой Америки устраивает большой переполох в Нью-Йорке! Кевин МакКалистер вернулся! Но теперь он один не дома, а в Нью-Йорке и у него достаточно денег и кредитных карточек, чтобы превратить Большое Яблоко в собственную площадку для игр.Но, как всегда, Кевину не суждено быть долго одному: его старые приятели ― жулики Гарри и Марв ― сбежали из тюрьмы, куда они попали стараниями Кевина. И надо же им было попасть именно в тот город, где Кевин планировал поразвлечься! Новые западни и ловушки уже ждут горе-бандитов.
Качество исходника: BDRip 1080p
Качество: HDRip
Разрешение: 480p
Формат: M4V
Видео: AVC at 1800 Кбит/сек, 640 x 460 (1.852) at 23.976 fps
Аудио: AAC at 128 Кбит/сек, 2 канала, 48,0 КГц, Дублированный
Аудио №2: AAC at 128 Кбит/сек, 2 канала, 48,0 КГц, Многоголосый закадровый
Аудио №3: AAC at 128 Кбит/сек, 2 канала, 48,0 КГц, Многоголосый закадровый, Новый Канал
Аудио №4: AAC at 128 Кбит/сек, 2 канала, 48,0 КГц, Горчаков
Аудио №5: AAC at 128 Кбит/сек, 2 канала, 48,0 КГц, Английский оригинальный
iTunes Meta Tags
Код:
[hr][/hr]Media Type: Movie
XID: Apple:vendor_id:1992-tt0104431
ScreenWriters: Джон Хьюз
Producers: Дункан Хендерсон, Джон Хьюз, Марк Рэдклифф
Director: Крис Коламбус
Cast: Маколей Калкин, Джо Пеши, Дэниел Стерн, Кэтрин О’Хара, Джон Хёрд, Девин Рэтрей, Хиллари Вульф, Морин Элизабет Шэй, Майкл С. Маронна, Джерри Бэммен
Long Description: Самый маленький герой Америки устраивает большой переполох в Нью Йорке! Кевин МакКалистер вернулся! Но теперь он один не дома, а в Нью Йорке и у него достаточно денег и кредитных карточек, чтобы превратить Большое Яблоко в собственную площадку для игр.Но, как всегда, Кевину не суждено быть долго одному, его старые приятели жулики Гарри и Марв сбежали из тюрьмы, куда они попали стараниями Кевина. И надо же им было попасть именно в тот город, где Кевин планировал поразвлечься. Новые западни и ловушки уже ждут горе бандитов.
Description: Самый маленький герой Америки устраивает большой переполох в Нью Йорке! Кевин МакКалистер вернулся! Но теперь он один не дома, а в Нью Йорке и у него достаточно денег и кредитных карточек, чтобы превратить Большое Яблоко в собственную площадку для иг
Release Date: 1992-11-20
Genre: комедия & семейный & новогодний
Artist: Крис Коламбус
Name: Один дома 2: Затерянный в Нью-Йорке

MediaInfo
Код:
Общее
Полное имя: E:\Home Alone\Home Alone 2.m4v
Формат: MPEG-4
Идентификатор кодека: M4V
Размер файла: 1,95 Гбайт
Продолжительность: 2 ч. 0 м.
Режим общего битрейта: Переменный
Общий поток: 2320 Кбит/сек
Название фильма: Один дома 2: Затерянный в Нью-Йорке
Исполнитель: Крис Коламбус
Жанр: комедия & семейный & новогодний
Дата записи: 1992-11-20
Дата кодирования: UTC 2012-12-14 12:47:22
Дата пометки: UTC 2012-12-14 12:51:24
Программа кодирования: MkvToMp4 [www.mkvtomp4.ru] version 0.222
Обложка: Yes
desc: Самый маленький герой Америки устраивает большой переполох в Нью Йорке! Кевин МакКалистер вернулся! Но теперь он один не дома, а в Нью Йорке и у него достаточно денег и кредитных карточек, чтобы превратить Большое Яблоко в собственную площадку для иг
ldes: Самый маленький герой Америки устраивает большой переполох в Нью Йорке! Кевин МакКалистер вернулся! Но теперь он один не дома, а в Нью Йорке и у него достаточно денег и кредитных карточек, чтобы превратить Большое Яблоко в собственную площадку для игр.Но, как всегда, Кевину не суждено быть долго одному, его старые приятели жулики Гарри и Марв сбежали из тюрьмы, куда они попали стараниями Кевина. И надо же им было попасть именно в тот город, где Кевин планировал поразвлечься. Новые западни и ловушки уже ждут горе бандитов.
hdvd: 0
stik: 9
xid: Apple:vendor_id:1992-tt0104431
iTunEXTC: mpaa|PG|200|
iTunMOVI: <?xml version="1.0" encoding="UTF-8"?> / <!DOCTYPE plist PUBLIC "-/Apple/DTD PLIST 1.0/EN" "http://www.apple.com/DTDs/PropertyList-1.0.dtd"> / <plist version="1.0"> /<dict> /<key>cast</key> /<array> /<dict> /<key>name</key> /<string>Маколей Калкин</string> /</dict> /<dict> /<key>name</key> /<string>Джо Пеши</string> /</dict> /<dict> /<key>name</key> /<string>Дэниел Стерн</string> /</dict> /<dict> /<key>name</key> /<string>Кэтрин О’Хара</string> /</dict> /<dict> /<key>name</key> /<string>Джон Хёрд</string> /</dict> /<dict> /<key>name</key> /<string>Девин Рэтрей</string> /</dict> /<dict> /<key>name</key> /<string>Хиллари Вульф</string> /</dict> /<dict> /<key>name</key> /<string>Морин Элизабет Шэй</string> /</dict> /<dict> /<key>name</key> /<string>Майкл С. Маронна</string> /</dict> /<dict> /<key>name</key> /<string>Джерри Бэммен</string> /</dict> /</array> /<key>directors</key> /<array> /<dict> /<key>name</key> /<string>Крис Коламбус</string> /</dict> /</array> /<key>producers</key> /<array> /<dict> /<key>name</key> /<string>Дункан Хендерсон</string> /</dict> /<dict> /<key>name</key> /<string>Джон Хьюз</string> /</dict> /<dict> /<key>name</key> /<string>Марк Рэдклифф</string> /</dict> /</array> /<key>screenwriters</key> /<array> /<dict> /<key>name</key> /<string>Джон Хьюз</string> /</dict> /</array> /</dict> / </plist>
Видео
Идентификатор: 1
Формат: AVC
Формат/Информация: Advanced Video Codec
Профиль формата: [email protected]
Параметр CABAC формата: Нет
Параметр ReFrames формата: 2 кадра
Идентификатор кодека: avc1
Идентификатор кодека/Информация: Advanced Video Coding
Продолжительность: 2 ч. 0 м.
Битрейт: 1800 Кбит/сек
Максимальный битрейт: 12,9 Мбит/сек
Ширина: 640 пикселей
Высота: 460 пикселей
Соотношение сторон: 1,85:1
Режим частоты кадров: Переменный
Частота кадров: 23,976 кадра/сек
Минимальная частота кадров: 23,810 кадра/сек
Максимальная частота кадров: 24,390 кадра/сек
Цветовое пространство: YUV
Субдискретизация насыщенности: 4:2:0
Битовая глубина: 8 бит
Тип развёртки: Прогрессивная
Бит/(Пиксели*Кадры): 0.255
Размер потока: 1,51 Гбайт (78%)
Библиотека кодирования: x264 core 120
Настройки программы: cabac=0 / ref=2 / deblock=1:0:0 / analyse=0x1:0x111 / me=umh / subme=8 / psy=1 / psy_rd=1.00:0.00 / mixed_ref=1 / me_range=16 / chroma_me=1 / trellis=0 / 8x8dct=0 / cqm=0 / deadzone=21,11 / fast_pskip=1 / chroma_qp_offset=-2 / threads=6 / sliced_threads=0 / nr=0 / decimate=1 / interlaced=0 / bluray_compat=0 / constrained_intra=0 / bframes=0 / weightp=0 / keyint=240 / keyint_min=24 / scenecut=40 / intra_refresh=0 / rc_lookahead=40 / rc=2pass / mbtree=1 / bitrate=1800 / ratetol=1.0 / qcomp=0.60 / qpmin=3 / qpmax=69 / qpstep=4 / cplxblur=20.0 / qblur=0.5 / ip_ratio=1.40 / aq=1:1.00
Язык: English
Дата кодирования: UTC 2012-12-14 12:47:22
Дата пометки: UTC 2012-12-14 12:49:18
Основные цвета: BT.709
Характеристики трансфера: BT.709
Коэффициенты матрицы: BT.709
Аудио #1
Идентификатор: 2
Формат: AAC
Формат/Информация: Advanced Audio Codec
Профиль формата: LC
Идентификатор кодека: 40
Продолжительность: 2 ч. 0 м.
Вид битрейта: Переменный
Битрейт: 128 Кбит/сек
Максимальный битрейт: 270 Кбит/сек
Каналы: 2 канала
Расположение каналов: Front: L R
Частота: 48,0 КГц
Метод сжатия: С потерями
Размер потока: 110 Мбайт (6%)
Заголовок: Dub
Язык: Russian
Дата кодирования: UTC 2012-12-14 12:48:26
Дата пометки: UTC 2012-12-14 12:49:18
Аудио #2
Идентификатор: 3
Формат: AAC
Формат/Информация: Advanced Audio Codec
Профиль формата: LC
Идентификатор кодека: 40
Продолжительность: 2 ч. 0 м.
Вид битрейта: Переменный
Битрейт: 128 Кбит/сек
Максимальный битрейт: 177 Кбит/сек
Каналы: 2 канала
Расположение каналов: Front: L R
Частота: 48,0 КГц
Метод сжатия: С потерями
Размер потока: 110 Мбайт (6%)
Заголовок: MVO
Язык: Russian
Дата кодирования: UTC 2012-12-14 12:48:40
Дата пометки: UTC 2012-12-14 12:49:18
Аудио #3
Идентификатор: 4
Формат: AAC
Формат/Информация: Advanced Audio Codec
Профиль формата: LC
Идентификатор кодека: 40
Продолжительность: 2 ч. 0 м.
Вид битрейта: Переменный
Битрейт: 128 Кбит/сек
Максимальный битрейт: 272 Кбит/сек
Каналы: 2 канала
Расположение каналов: Front: L R
Частота: 48,0 КГц
Метод сжатия: С потерями
Размер потока: 110 Мбайт (6%)
Заголовок: Gorchakov
Язык: Russian
Дата кодирования: UTC 2012-12-14 12:48:53
Дата пометки: UTC 2012-12-14 12:49:18
Аудио #4
Идентификатор: 5
Формат: AAC
Формат/Информация: Advanced Audio Codec
Профиль формата: LC
Идентификатор кодека: 40
Продолжительность: 2 ч. 0 м.
Вид битрейта: Переменный
Битрейт: 128 Кбит/сек
Максимальный битрейт: 273 Кбит/сек
Каналы: 2 канала
Расположение каналов: Front: L R
Частота: 48,0 КГц
Метод сжатия: С потерями
Размер потока: 110 Мбайт (6%)
Язык: English
Дата кодирования: UTC 2012-12-14 12:49:05
Дата пометки: UTC 2012-12-14 12:49:18
Текст #1
Идентификатор: 6
Формат: Timed text
Режим смешивания: sbtl
Идентификатор кодека: tx3g
Продолжительность: 1 ч. 55 м.
Вид битрейта: Переменный
Битрейт: 69 бит/сек
Размер потока: 58,1 Кбайт (0%)
Язык: Russian
Дата кодирования: UTC 2012-12-14 12:49:18
Дата пометки: UTC 2012-12-14 12:49:18
Текст #2
Идентификатор: 7
Формат: Timed text
Режим смешивания: sbtl
Идентификатор кодека: tx3g
Продолжительность: 2 ч. 0 м.
Вид битрейта: Переменный
Битрейт: 48 бит/сек
Размер потока: 42,5 Кбайт (0%)
Язык: English
Дата кодирования: UTC 2012-12-14 12:49:18
Дата пометки: UTC 2012-12-14 12:49:18

x264 лог
Код:
x264 [info]: frame I:2777Avg QP:20.16size: 43611PSNR Mean Y:42.97 U:50.75 V:51.09 Avg:44.29 Global:43.72
x264 [info]: frame P:169884 Avg QP:22.13size:8824PSNR Mean Y:40.71 U:49.54 V:49.65 Avg:42.05 Global:41.64
x264 [info]: mb II16..4: 18.9%0.0% 81.1%
x264 [info]: mb PI16..4:0.6%0.0%2.2%P16..4: 46.4% 22.0%9.9%0.0%0.0%skip:19.0%
x264 [info]: coded y,uvDC,uvAC intra: 86.6% 68.4% 33.9% inter: 30.5% 16.2% 1.4%
x264 [info]: i16 v,h,dc,p: 40% 17%8% 34%
x264 [info]: i4 v,h,dc,ddl,ddr,vr,hd,vl,hu: 10%5%3% 14% 17% 18% 12% 13%8%
x264 [info]: i8c dc,h,v,p: 48% 15% 28% 10%
x264 [info]: ref P L0: 70.6% 29.4%
x264 [info]: SSIM Mean Y:0.9576096 (13.727db)
x264 [info]: PSNR Mean Y:40.749 U:49.563 V:49.672 Avg:42.088 Global:41.668 kb/s:1799.74

Скриншоты



Вернуться к началу
 Профиль Отправить личное сообщение  
 
   Похожие торренты   Автор   Торрент   Размер 
В этой теме нет новых непрочитанных сообщений. Один дома 4 / Home alone 4 [Комедия, семейный, 2002] HDTVRip 720p, Mvo [Первый канал]

salma3

0 | 0

3.22 ГБ

В этой теме нет новых непрочитанных сообщений. Один Дома / Home Alone [комедия, семейный, 1990] BDRip, Avo

salma3

72 | 13

1.46 ГБ

В этой теме нет новых непрочитанных сообщений. Один прекрасный день / One Fine Day [Драма, мелодрама, комедия, 1996] HDTVRip, Mvo [Первый канал]

salma3

98 | 31

1.45 ГБ

В этой теме нет новых непрочитанных сообщений. Один дома 3 / Home Alone 3 [комедия, криминал, семейный, 1997] WEB-DLRip, Dub

salma3

0 | 0

1.32 ГБ

В этой теме нет новых непрочитанных сообщений. Крутой район / Полицейский участок / Downtown [боевик, драма, комедия, 1990] WEB-DLRip, Mvo [Первый канал]

salma3

35 | 0

1.45 ГБ

В этой теме нет новых непрочитанных сообщений. Пиксели / Pixels (Крис Коламбус) [фантастика, боевик, комедия, 2015] Blu-Ray, Dub+Sub [Лицензия]

Dracon

119 | 53

34.82 ГБ

В этой теме нет новых непрочитанных сообщений. Ограм на счастье / Au bonheur des ogres (Николя Бери) [драма, комедия, 2013] HDRip, Mvo [Первый канал]

Dracon

18 | 2

1.37 ГБ


Начать новую тему Ответить на тему  [ 1 сообщение ] 




Для Мосгорсуда, Роскомнадзора и рекламодателей:: mosgorsud-torrent[собачка]yandex.ru
cron