Торрент файл
скачать торрент магнет ссылка Добавлен: 05 янв 2013, 22:39
Размер: 783.36 МБ
Сидеров: 0
Личеров: 3
Автор

СообщениеДобавлено: 05 янв 2013, 22:39 

Не в сети
Супермодератор
Аватара пользователя
Дата регистрации:
11 апр 2010, 18:10
Спасибо: 5995 / 7
Сообщения: 56685
id="p-25224744-1">PBS: Природа – Гималаи / PBS: Nature – The Himalayas

Год выпуска: 2011
Страна: США
Жанр: документальный
Продолжительность: 00:53:00
Перевод: Одноголосый закадровый, студия "Омикрон"
Субтитры: Английские
Режиссер: Chris Morgan
Мировая премьера: 22 марта 2011 г.
Описание: Гималаи определяют только в превосходных эпитетах. Они не поддаются описанию и пониманию, в то же время учат нас огромной мощи и величию природы. Родившиеся в ледниковый период, они формируют высочайшую горную цепь в мире, протянувшеюся по Азии на протяжении двух тысяч миль. Сами горы считается священными. Это горы, от которых захватывает дух!
Исходник: Blu-Ray
Контейнер: M4V
Видео кодек:AVC
Аудио кодек: AAC
Видео 480p: 640x480 anamorph 852x480 at 23.976 fps, MPEG-4 AVC, ~1800 kbps avg
Аудио №1: Stereo (128 kbps) / Одноголосый закадровый, студия "Омикрон"
Аудио №2: Stereo (128 kbps) / Оригинал
Субтитры №1: English Full
HD версия фильма
iTunes MetaTag
Код:
Код:
Sort Name: Himalayas
XID: Apple:vendor-id:2011-6338
contentID: 6338
Screenwriters: Mark Fletcher, Kate Fulton
Director: Chris Morgan
Rating: 1
Long Description: Гималаи определяют только в превосходных эпитетах. Они не поддаются описанию и пониманию, в то же время учат нас огромной мощи и величию природы. Родившиеся в ледниковый период, они формируют высочайшую горную цепь в мире, протянувшеюся по Азии на протяжении двух тысяч миль. Сами горы считается священными. Это горы, от которых захватывает дух!
Description: Гималаи определяют только в превосходных эпитетах. Они не поддаются описанию и пониманию, в то же время учат нас огромной мощи и величию природы. Родившиеся в ледниковый период, они формируют высочайшую горную цепь в мире, протянувшеюся по Азии на протяжении двух тысяч миль. Сами горы считается священными. Это горы, от которых захватывает дух!
Release Date: 2011-03-22T07:00:00Z
Genre: Documentary
Artist: Chris Morgan
Name: Nature: The Himalayas

MediaInfo 480p
Код:
Код:
* * * MediaInspector for Mac - Version 2.0.1, build 900
* * * ©2012 by Diego Massanti
* * * MediaInfo Lib by Jerome Martinez
* * * Raw File Report for Nature_ The Himalayas.m4v
General
Complete name                    : /Volumes/Films/AppleTV/Ready/Nature_ The Himalayas/Nature_ The Himalayas.m4v
Format                           : MPEG-4
Codec ID                         : M4V
File size                        : 783 MiB
Duration                         : 58mn 20s
Overall bit rate                 : 1 878 Kbps
Movie name                       : Nature: The Himalayas
Performer                        : Chris Morgan
Genre                            : Documentary
Recorded date                    : UTC 2011-03-22 07:00:00
Encoded date                     : UTC 2012-11-19 17:42:58
Tagged date                      : UTC 2012-11-19 17:45:10
Cover                            : Yes
sonm                             : Himalayas
desc                             : ??????? ?????????? ?????? ? ???????????? ????????. ??? ?? ????????? ???????? ? ?????????, ? ?? ?? ????? ???? ??? ???????? ???? ? ??????? ???????. ?????????? ? ?????????? ??????, ??? ????????? ?????????? ?????? ???? ? ????, ????????????? ?? ???? ?? ?????????? ???? ????? ????. ???? ???? ????????? ??????????. ??? ????, ?? ??????? ??????????? ???!
ldes                             : ??????? ?????????? ?????? ? ???????????? ????????. ??? ?? ????????? ???????? ? ?????????, ? ?? ?? ????? ???? ??? ???????? ???? ? ??????? ???????. ?????????? ? ?????????? ??????, ??? ????????? ?????????? ?????? ???? ? ????, ????????????? ?? ???? ?? ?????????? ???? ????? ????. ???? ???? ????????? ??????????. ??? ????, ?? ??????? ??????????? ???!
stik                             : 9
rtng                             : 0
cnID                             : 6338
xid                              : Apple:vendor-id:2011-6338
iTunEXTC                         : mpaa|NR|000|
iTunMOVI                         : <?xml version="1.0" encoding="UTF-8"?> / <!DOCTYPE plist PUBLIC "-/Apple/DTD PLIST 1.0/EN" "http:/www.apple.com/DTDs/PropertyList-1.0.dtd"> / <plist version="1.0"> / <dict> /   <key>directors</key> /   <array> /     <dict> /       <key>name</key> /       <string>Chris Morgan</string> /     </dict> /   </array> /   <key>screenwriters</key> /   <array> /     <dict> /       <key>name</key> /       <string>Mark Fletcher</string> /     </dict> /     <dict> /       <key>name</key> /       <string>Kate Fulton</string> /     </dict> /   </array> / </dict> / </plist>
Video #1
ID                               : 1
Format                           : AVC
Format/Info                      : Advanced Video Codec
Format profile                   : [email protected]
Format settings, CABAC           : No
Format settings, ReFrames        : 2 frames
Codec ID                         : avc1
Codec ID/Info                    : Advanced Video Coding
Duration                         : 53mn 0s
Bit rate mode                    : Variable
Bit rate                         : 1 800 Kbps
Width                            : 640 pixels
Height                           : 480 pixels
Display aspect ratio             : 16:9
Frame rate mode                  : Variable
Frame rate                       : 23.976 fps
Minimum frame rate               : 23.974 fps
Maximum frame rate               : 23.981 fps
Color space                      : YUV
Chroma subsampling               : 4:2:0
Bit depth                        : 8 bits
Scan type                        : Progressive
Bits/(Pixel*Frame)               : 0.244
Stream size                      : 680 MiB (87%)
Writing library                  : x264 core 125
Encoding settings                : cabac=0 / ref=2 / deblock=1:0:0 / analyse=0x1:0x111 / me=umh / subme=6 / psy=1 / psy_rd=1.00:0.00 / mixed_ref=1 / me_range=16 / chroma_me=1 / trellis=0 / 8x8dct=0 / cqm=0 / deadzone=21,11 / fast_pskip=0 / chroma_qp_offset=-2 / threads=6 / lookahead_threads=1 / sliced_threads=0 / nr=0 / decimate=1 / interlaced=0 / bluray_compat=0 / constrained_intra=0 / bframes=0 / weightp=0 / keyint=240 / keyint_min=24 / scenecut=40 / intra_refresh=0 / rc_lookahead=40 / rc=2pass / mbtree=1 / bitrate=1800 / ratetol=1.0 / qcomp=0.60 / qpmin=3 / qpmax=69 / qpstep=4 / cplxblur=20.0 / qblur=0.5 / vbv_maxrate=5000 / vbv_bufsize=5000 / nal_hrd=none / ip_ratio=1.40 / aq=1:1.00
Language                         : English
Encoded date                     : UTC 2012-11-19 17:42:59
Tagged date                      : UTC 2012-11-19 17:43:49
Color primaries                  : BT.709-5, BT.1361, IEC 61966-2-4, SMPTE RP177
Transfer characteristics         : BT.709-5, BT.1361
Matrix coefficients              : BT.709-5, BT.1361, IEC 61966-2-4 709, SMPTE RP177
Video #2
ID                               : 6
Format                           : JPEG
Codec ID                         : jpeg
Duration                         : 58mn 20s
Bit rate mode                    : Variable
Bit rate                         : 1 012 bps
Width                            : 640 pixels
Height                           : 360 pixels
Display aspect ratio             : 16:9
Frame rate mode                  : Variable
Frame rate                       : 0.002 fps
Minimum frame rate               : 0.001 fps
Maximum frame rate               : 0.020 fps
Compression mode                 : Lossy
Bits/(Pixel*Frame)               : 2.196
Stream size                      : 432 KiB (0%)
Language                         : English
Encoded date                     : UTC 2012-11-19 17:44:04
Tagged date                      : UTC 2012-11-19 17:44:05
Audio #1
ID                               : 2
Format                           : AAC
Format/Info                      : Advanced Audio Codec
Format profile                   : LC
Codec ID                         : 40
Duration                         : 53mn 0s
Bit rate mode                    : Variable
Bit rate                         : 132.3 Kbps
Maximum bit rate                 : 217 Kbps
Channel(s)                       : 2 channels
Channel positions                : Front: L R
Sampling rate                    : 48.0 KHz
Compression mode                 : Lossy
Stream size                      : 50.0 MiB (6%)
Language                         : Russian
Encoded date                     : UTC 2012-11-19 17:42:59
Tagged date                      : UTC 2012-11-19 17:43:05
Audio #2
ID                               : 3
Format                           : AAC
Format/Info                      : Advanced Audio Codec
Format profile                   : LC
Codec ID                         : 40
Duration                         : 53mn 0s
Bit rate mode                    : Variable
Bit rate                         : 132.3 Kbps
Maximum bit rate                 : 212 Kbps
Channel(s)                       : 2 channels
Channel positions                : Front: L R
Sampling rate                    : 48.0 KHz
Compression mode                 : Lossy
Stream size                      : 50.1 MiB (6%)
Language                         : English
Encoded date                     : UTC 2012-11-19 17:42:59
Tagged date                      : UTC 2012-11-19 17:43:56
Text #1
ID                               : 4
Format                           : Timed text
Muxing mode                      : sbtl
Codec ID                         : tx3g
Duration                         : 52mn 50s
Bit rate mode                    : Variable
Bit rate                         : 62 bps
Stream size                      : 24.2 KiB (0%)
Language                         : English
Encoded date                     : UTC 2012-11-19 17:42:59
Tagged date                      : UTC 2012-11-19 17:44:03
Text #2
ID                               : 5
Format                           : Apple text
Codec ID                         : text
Duration                         : 53mn 0s
Bit rate mode                    : Constant
Bit rate                         : 0
Stream size                      : 161 Bytes (0%)
Language                         : English
Encoded date                     : UTC 2012-11-19 17:44:03
Tagged date                      : UTC 2012-11-19 17:44:03
Menu
00:00:00.000                     : Chapter 1
00:07:59.012                     : Chapter 2
00:14:54.360                     : Chapter 3
00:23:57.369                     : Chapter 4
00:36:24.315                     : Chapter 5
00:43:22.333                     : Chapter 6
00:52:10.661                     : Chapter 7

x264 log 480p
Код:
Код:
x264 [info]: frame I:1085  Avg QP:19.65  size: 40047  PSNR Mean Y:45.06 U:48.12 V:49.35 Avg:45.91 Global:44.93
x264 [info]: frame P:75181 Avg QP:21.51  size:  8909  PSNR Mean Y:42.62 U:45.71 V:47.36 Avg:43.51 Global:42.77
x264 [info]: mb I  I16..4: 18.4%  0.0% 81.6%
x264 [info]: mb P  I16..4:  1.1%  0.0%  3.1%  P16..4: 53.6% 20.9%  8.8%  0.0%  0.0%    skip:12.4%
x264 [info]: coded y,uvDC,uvAC intra: 72.5% 76.4% 43.2% inter: 31.6% 34.0% 4.3%
x264 [info]: i16 v,h,dc,p: 28% 25%  8% 39%
x264 [info]: i4 v,h,dc,ddl,ddr,vr,hd,vl,hu: 21% 15% 13%  7% 10% 10%  8%  9%  7%
x264 [info]: i8c dc,h,v,p: 54% 19% 19%  8%
x264 [info]: ref P L0: 70.6% 29.4%
x264 [info]: SSIM Mean Y:0.9803574 (17.068db)
x264 [info]: PSNR Mean Y:42.651 U:45.747 V:47.391 Avg:43.539 Global:42.792 kb/s:1793.74

Скриншоты 480p


Релиз подготовлен для просмотра на iPad, iPhone, iPod Touch, iPod Nano и iPod Classic.
Для просмотра данного релиза на компьютере с ОС Windows рекомендуется использовать VLC media player



Вернуться к началу
 Профиль Отправить личное сообщение  
 
   Похожие торренты   Автор   Торрент   Размер 
В этой теме нет новых непрочитанных сообщений. Как устроена природа (серии 1-4 из 4) / BBC: How Nature Works [документальный, 2012] LowHDTVRip, Dub

salma3

15 | 5

2.81 ГБ

В этой теме нет новых непрочитанных сообщений. Опасная природа / Nature's Grave [триллер, драма, 2008] BDRip 720p, Mvo

salma3

102 | 23

4.92 ГБ

В этой теме нет новых непрочитанных сообщений. Опасная природа / Nature's Grave [триллер, драма, 2008] BDRip 1080p, Mvo

salma3

11 | 2

6.67 ГБ

В этой теме нет новых непрочитанных сообщений. Эйс Вентура 2: Когда зовет природа / Ace Ventura: When Nature Calls [Комедия, приключения, 1995] BDRip 720p, Dub+Mvo+Dvo+Avo+Sub

salma3

6 | 0

10.14 ГБ

В этой теме нет новых непрочитанных сообщений. Эйс Вентура 2: Когда зовет природа / Ace Ventura: When Nature Calls [комедия, детектив, приключения, 1995] BDRip, Mvo [Варус Видео]

salma3

76 | 8

1.45 ГБ

В этой теме нет новых непрочитанных сообщений. Брат-Природа / Brother Nature [комедия, 2016] WEB-DLRip, Mvo

salma3

433 | 37

1.37 ГБ

В этой теме нет новых непрочитанных сообщений. Опасная природа / Nature's Grave [триллер, драма, 2008] HDRip-AVC, Mvo

salma3

81 | 13

746.09 МБ


Начать новую тему Ответить на тему  [ 1 сообщение ] 




Для Мосгорсуда, Роскомнадзора и рекламодателей:: mosgorsud-torrent[собачка]yandex.ru
cron