Торрент файл
скачать торрент магнет ссылка Добавлен: 05 янв 2013, 22:39
Размер: 2.21 ГБ
Сидеров: 3
Личеров: 4
Автор

СообщениеДобавлено: 05 янв 2013, 22:39 

Не в сети
Супермодератор
Аватара пользователя
Дата регистрации:
11 апр 2010, 18:10
Спасибо: 5995 / 7
Сообщения: 56685
id="p-25224744-1">Жажда странствий / Страсть к перемене мест / Wanderlust

«Leave your baggage behind.»
Год выпуска: 2012
Страна: США
Жанр: комедия, мелодрама
Продолжительность: 01:38:06
Перевод : профессиональный (полное дублирование), профессиональный (двухголосый, закадровый), профессиональный (одноголосый, закадровый)
Режиссёр: Дэвид Уэйн / David Wain
В ролях: Пол Радд, Дженнифер Энистон, Джастин Теру, Алан Алда, Малин Акерман, Кен Марино, Джо Ло Труглио, Кэтрин Хан, Керри Кенни, Лорен Эмброуз, Михаэлла Уоткинс, Джордан Пил, Линда Лавин, Джессика Ст. Клэр, Тодд Бэрри, Мартин Томпсон, Йен Патрик, Джон Д’Лео, Дэвид Уэйн
Описание:
Герои фильма Линда и Джордж — самые обыкновенные городские жители. И живут они в самом обыкновенном Нью-Йорке. Но что делать, когда быт и окружающие тебя люди, то, чем ты занимаешься, да и вообще всё вокруг, начинает тебя жутко раздражать? Выход один — сменить обстановку. Так и поступает семейная пара, меняя суматошный Нью-Йорк на более спокойный небольшой городок, чтобы отдохнуть, а заодно приобщиться к тамошней культуре.

Качество: исходник BDRip 1080p (HDCina)
Формат: *.m4v
Видео кодек: H.264
Аудио кодек: ААС
Видео: 1024х552 / 2558 kbps / 23.976 fps / 0.189
Аудио 1: русский / AAC 2.0 / 160 kbps / 48 kHz / DUB R5
Аудио 2: русский / AAC 2.0 / 160 kbps / 48 kHz / DVO
Аудио 3: русский / AAC 2.0 / 160 kbps / 48 kHz / VO
Аудио 4: английский / AAC 2.0 / 160 kbps / 48 kHz
Субтитры: русские, английские
Вшитая обложка: есть
Доп. теги (режиссёр, актёры и т.д.): прописаны
Главы: есть
MediaInfo

Общее
Полное имя : /Users/gekka/Movies/CREATE/wanderlust/WANDERLUST.2012.iPad.3Rus.Eng.m4v
Формат : MPEG-4
Идентификатор кодека : M4V
Размер файла : 2,21 Гбайт
Продолжительность : 1 ч. 38 м.
Режим общего битрейта : Переменный
Общий поток : 3226 Кбит/сек
Название фильма : Страсть к перемене мест
Исполнитель : Дэвид Уэйн
Жанр : Comedy
Дата записи : UTC 2012-02-24 08:00:00
Дата кодирования : UTC 2012-09-21 03:20:50
Дата пометки : UTC 2012-09-27 07:29:03
Правообладатель : © Universal Pictures International
Обложка : Yes
Примечание : «Leave your baggage behind.»
desc : Герои фильма Линда и Джордж — самые обыкновенные городские жители. И живут они в самом обыкновенном Нью-Йорке. Но что делать, когда быт и окружающие тебя люди, то, чем ты занимаешься, да и вообще всё вокруг, начинает тебя жутко раздражать? Выход один — сменить обстановку. Так и поступает семейная пара, меняя суматошный Нью-Йорк на более спокойный небольшой городок, чтобы отдохнуть, а заодно приобщиться к тамошней культуре.
ldes : Герои фильма Линда и Джордж — самые обыкновенные городские жители. И живут они в самом обыкновенном Нью-Йорке. Но что делать, когда быт и окружающие тебя люди, то, чем ты занимаешься, да и вообще всё вокруг, начинает тебя жутко раздражать? Выход один — сменить обстановку. Так и поступает семейная пара, меняя суматошный Нью-Йорк на более спокойный небольшой городок, чтобы отдохнуть, а заодно приобщиться к тамошней культуре.
hdvd : 1
stik : 9
rtng : 0
cnID : 509812315
xid : iPad:vendor_id:2012-523058
iTunEXTC : mpaa|R|400|
iTunMOVI : <?xml version="1.0" encoding="UTF-8"?> / <!DOCTYPE plist PUBLIC "-/Apple/DTD PLIST 1.0/EN" "http://www.apple.com/DTDs/PropertyList-1.0.dtd"> / <plist version="1.0"> / <dict> / <key>cast</key> / <array> / <dict> / <key>name</key> / <string>Пол Радд</string> / </dict> / <dict> / <key>name</key> / <string>Дженнифер Энистон</string> / </dict> / <dict> / <key>name</key> / <string>Джастин Теру</string> / </dict> / <dict> / <key>name</key> / <string>Алан Алда</string> / </dict> / <dict> / <key>name</key> / <string>Малин Акерман</string> / </dict> / <dict> / <key>name</key> / <string>Кен Марино</string> / </dict> / <dict> / <key>name</key> / <string>Джо Ло Труглио</string> / </dict> / <dict> / <key>name</key> / <string>Кэтрин Хан</string> / </dict> / <dict> / <key>name</key> / <string>Керри Кенни</string> / </dict> / <dict> / <key>name</key> / <string>Лорен Эмброуз</string> / </dict> / <dict> / <key>name</key> / <string>Михаэлла Уоткинс</string> / </dict> / <dict> / <key>name</key> / <string>Джордан Пил</string> / </dict> / <dict> / <key>name</key> / <string>Линда Лавин</string> / </dict> / <dict> / <key>name</key> / <string>Джессика Ст. Клэр</string> / </dict> / <dict> / <key>name</key> / <string>Тодд Бэрри</string> / </dict> / <dict> / <key>name</key> / <string>Мартин Томпсон</string> / </dict> / <dict> / <key>name</key> / <string>Йен Патрик</string> / </dict> / <dict> / <key>name</key> / <string>Джон Д’Лео</string> / </dict> / <dict> / <key>name</key> / <string>Дэвид Уэйн</string> / </dict> / </array> / <key>directors</key> / <array> / <dict> / <key>name</key> / <string>Дэвид Уэйн</string> / </dict> / </array> / <key>producers</key> / <array> / <dict> / <key>name</key> / <string>Джудд Апатоу</string> / </dict> / <dict> / <key>name</key> / <string>Кен Марино</string> / </dict> / <dict> / <key>name</key> / <string>Пол Радд</string> / </dict> / </array> / <key>screenwriters</key> / <array> / <dict> / <key>name</key> / <string>Дэвид Уэйн</string> / </dict> / <dict> / <key>name</key> / <string>Кен Марино</string> / </dict> / </array> / <key>studio</key> / <string>© Relativity Media</string> / </dict> / </plist>
Видео #1
Идентификатор : 1
Формат : AVC
Формат/Информация : Advanced Video Codec
Профиль формата : [email protected]
Параметр CABAC формата : Да
Параметр ReFrames формата : 11 кадров
Идентификатор кодека : avc1
Идентификатор кодека/Информация : Advanced Video Coding
Продолжительность : 1 ч. 38 м.
Вид битрейта : Переменный
Битрейт : 2558 Кбит/сек
Ширина : 1024 пикселя
Высота : 552 пикселя
Соотношение сторон : 1,85:1
Режим частоты кадров : Переменный
Частота кадров : 23,976 кадра/сек
Минимальная частота кадров : 23,952 кадра/сек
Максимальная частота кадров : 23,981 кадра/сек
Цветовое пространство : YUV
Субдискретизация насыщенности : 4:2:0
Битовая глубина : 8 бит
Тип развёртки : Прогрессивная
Бит/(Пиксели*Кадры) : 0.189
Размер потока : 1,75 Гбайт (79%)
Библиотека кодирования : x264 core 125 r2208 d9d2288
Настройки программы : cabac=1 / ref=12 / deblock=1:-1:-1 / analyse=0x3:0x133 / me=tesa / subme=11 / psy=1 / psy_rd=1.00:0.10 / mixed_ref=1 / me_range=32 / chroma_me=1 / trellis=2 / 8x8dct=1 / cqm=0 / deadzone=21,11 / fast_pskip=0 / chroma_qp_offset=-3 / threads=18 / lookahead_threads=3 / sliced_threads=0 / nr=0 / decimate=0 / interlaced=0 / bluray_compat=0 / constrained_intra=0 / bframes=12 / b_pyramid=1 / b_adapt=2 / b_bias=0 / direct=1 / weightb=1 / open_gop=0 / weightp=2 / keyint=240 / keyint_min=23 / scenecut=40 / intra_refresh=0 / rc_lookahead=60 / rc=crf / mbtree=0 / crf=18.8 / qcomp=0.65 / qpmin=0 / qpmax=69 / qpstep=4 / vbv_maxrate=50000 / vbv_bufsize=62500 / crf_max=0.0 / nal_hrd=none / ip_ratio=1.40 / pb_ratio=1.20 / aq=2:0.90
Язык : English
Дата кодирования : UTC 2012-09-21 03:20:50
Дата пометки : UTC 2012-09-21 03:21:45
Коэффициенты матрицы : BT.709-5, BT.1361, IEC 61966-2-4 709, SMPTE RP177
Видео #2
Идентификатор : 9
Формат : JPEG
Идентификатор кодека : jpeg
Продолжительность : 1 ч. 38 м.
Duration_LastFrame : -1 м. 53 с.
Вид битрейта : Переменный
Битрейт : 784 бит/сек
Ширина : 640 пикселей
Высота : 345 пикселей
Соотношение сторон : 1,85:1
Режим частоты кадров : Постоянный
Частота кадров : 0,002 кадр/сек
Цветовое пространство : YUV
Субдискретизация насыщенности : 4:2:0
Битовая глубина : 8 бит
Метод сжатия : С потерями
Бит/(Пиксели*Кадры) : 1.775
Размер потока : 479 Кбайт (0%)
Язык : English
Дата кодирования : UTC 2012-09-22 02:41:55
Дата пометки : UTC 2012-09-22 02:41:55
Аудио #1
Идентификатор : 2
Формат : AAC
Формат/Информация : Advanced Audio Codec
Профиль формата : LC
Идентификатор кодека : 40
Продолжительность : 1 ч. 38 м.
Вид битрейта : Переменный
Битрейт : 164 Кбит/сек
Максимальный битрейт : 259 Кбит/сек
Каналы : 2 канала
Расположение каналов : Front: L R
Частота : 44,1 КГц
Метод сжатия : С потерями
Размер потока : 115 Мбайт (5%)
Язык : Russian
Дата кодирования : UTC 2012-09-21 03:20:50
Дата пометки : UTC 2012-09-21 03:21:48
Аудио #2
Идентификатор : 3
Формат : AAC
Формат/Информация : Advanced Audio Codec
Профиль формата : LC
Идентификатор кодека : 40
Продолжительность : 1 ч. 37 м.
Вид битрейта : Переменный
Битрейт : 165 Кбит/сек
Максимальный битрейт : 275 Кбит/сек
Каналы : 2 канала
Расположение каналов : Front: L R
Частота : 44,1 КГц
Метод сжатия : С потерями
Размер потока : 115 Мбайт (5%)
Язык : Russian
Дата кодирования : UTC 2012-09-21 03:20:50
Дата пометки : UTC 2012-09-21 03:21:51
Аудио #3
Идентификатор : 4
Формат : AAC
Формат/Информация : Advanced Audio Codec
Профиль формата : LC
Идентификатор кодека : 40
Продолжительность : 1 ч. 38 м.
Вид битрейта : Переменный
Битрейт : 163 Кбит/сек
Максимальный битрейт : 261 Кбит/сек
Каналы : 2 канала
Расположение каналов : Front: L R
Частота : 44,1 КГц
Метод сжатия : С потерями
Размер потока : 114 Мбайт (5%)
Язык : Russian
Дата кодирования : UTC 2012-09-21 03:20:50
Дата пометки : UTC 2012-09-21 03:21:53
Аудио #4
Идентификатор : 5
Формат : AAC
Формат/Информация : Advanced Audio Codec
Профиль формата : LC
Идентификатор кодека : 40
Продолжительность : 1 ч. 38 м.
Вид битрейта : Переменный
Битрейт : 164 Кбит/сек
Максимальный битрейт : 265 Кбит/сек
Каналы : 2 канала
Расположение каналов : Front: L R
Частота : 48,0 КГц
Метод сжатия : С потерями
Размер потока : 115 Мбайт (5%)
Язык : English
Дата кодирования : UTC 2012-09-21 03:20:50
Дата пометки : UTC 2012-09-21 03:21:56
Текст #1
Идентификатор : 6
Формат : Apple text
Идентификатор кодека : text
Продолжительность : 1 ч. 38 м.
Duration_LastFrame : -1 м. 53 с.
Вид битрейта : Переменный
Битрейт : 0 бит/сек
Размер потока : 231 байт (0%)
Язык : English
Дата кодирования : UTC 2012-09-21 03:21:56
Дата пометки : UTC 2012-09-21 03:21:56
Текст #2
Идентификатор : 7
Формат : Timed text
Режим смешивания : sbtl
Идентификатор кодека : tx3g
Продолжительность : 1 ч. 37 м.
Вид битрейта : Переменный
Битрейт : 153 бит/сек
Размер потока : 110 Кбайт (0%)
Язык : Russian
Дата кодирования : UTC 2012-09-21 03:26:45
Дата пометки : UTC 2012-09-21 03:26:45
Текст #3
Идентификатор : 8
Формат : Timed text
Режим смешивания : sbtl
Идентификатор кодека : tx3g
Продолжительность : 1 ч. 37 м.
Вид битрейта : Переменный
Битрейт : 100 бит/сек
Размер потока : 71,5 Кбайт (0%)
Язык : English
Дата кодирования : UTC 2012-09-21 03:26:45
Дата пометки : UTC 2012-09-21 03:26:45
Меню
00:00:00.000 : Chapter 1
00:10:00.000 : Chapter 2
00:20:00.000 : Chapter 3
00:30:00.000 : Chapter 4
00:40:00.000 : Chapter 5
00:50:00.000 : Chapter 6
01:00:00.000 : Chapter 7
01:10:00.000 : Chapter 8
01:20:00.000 : Chapter 9
01:30:00.000 : Chapter 10
x264.log

x264 [info]: frame I:1569 Avg QP:17.48 size:100016 PSNR Mean Y:45.67 U:49.58 V:49.91 Avg:46.63 Global:46.13
x264 [info]: frame P:31150 Avg QP:20.36 size: 26411 PSNR Mean Y:44.28 U:49.75 V:50.14 Avg:45.44 Global:44.57
x264 [info]: frame B:108426 Avg QP:21.89 size: 8327 PSNR Mean Y:43.90 U:49.52 V:49.90 Avg:45.08 Global:44.14
x264 [info]: consecutive B-frames: 2.7% 3.9% 7.0% 16.9% 19.9% 42.3% 4.2% 1.0% 0.6% 0.6% 0.3% 0.3% 0.3%
x264 [info]: mb I I16..4: 8.5% 67.8% 23.7%
x264 [info]: mb P I16..4: 0.5% 7.0% 1.2% P16..4: 31.1% 34.6% 14.4% 2.9% 0.3% skip: 7.8%
x264 [info]: mb B I16..4: 0.0% 0.8% 0.1% B16..8: 33.2% 19.3% 3.4% direct: 4.8% skip:38.3% L0:37.4% L1:47.0% BI:15.6%
x264 [info]: 8x8 transform intra:77.5% inter:54.1%
x264 [info]: coded y,uvDC,uvAC intra: 92.7% 87.0% 67.1% inter: 21.4% 14.8% 6.0%
x264 [info]: i16 v,h,dc,p: 18% 12% 17% 54%
x264 [info]: i8 v,h,dc,ddl,ddr,vr,hd,vl,hu: 13% 7% 7% 9% 13% 14% 12% 12% 12%
x264 [info]: i4 v,h,dc,ddl,ddr,vr,hd,vl,hu: 13% 8% 5% 9% 15% 14% 13% 11% 12%
x264 [info]: i8c dc,h,v,p: 38% 22% 21% 19%
x264 [info]: Weighted P-Frames: Y:1.6% UV:0.7%
x264 [info]: ref P L0: 62.8% 11.8% 11.2% 4.4% 2.8% 2.0% 1.6% 0.9% 0.8% 0.7% 0.7% 0.2% 0.0%
x264 [info]: ref B L0: 89.6% 5.2% 2.3% 0.9% 0.6% 0.5% 0.4% 0.2% 0.2% 0.1%
x264 [info]: ref B L1: 94.7% 5.3%
x264 [info]: SSIM Mean Y:0.9808835 (17.186db)
x264 [info]: PSNR Mean Y:44.004 U:49.570 V:49.956 Avg:45.178 Global:44.247 kb/s:2558.26
Скриншоты
Теги

XID: iPad:vendor_id:2012-523058
contentID: 509812315
Copyright: © Universal Pictures International
Screenwriters: Дэвид Уэйн, Кен Марино
Producers: Джудд Апатоу, Кен Марино, Пол Радд
Director: Дэвид Уэйн
Cast: Пол Радд, Дженнифер Энистон, Джастин Теру, Алан Алда, Малин Акерман, Кен Марино, Джо Ло Труглио, Кэтрин Хан, Керри Кенни, Лорен Эмброуз, Михаэлла Уоткинс, Джордан Пил, Линда Лавин, Джессика Ст. Клэр, Тодд Бэрри, Мартин Томпсон, Йен Патрик, Джон Д’Лео, Дэвид Уэйн
Studio: © Relativity Media
Rating: 5
Long Description: Герои фильма Линда и Джордж — самые обыкновенные городские жители. И живут они в самом обыкновенном Нью-Йорке. Но что делать, когда быт и окружающие тебя люди, то, чем ты занимаешься, да и вообще всё вокруг, начинает тебя жутко раздражать? Выход один — сменить обстановку. Так и поступает семейная пара, меняя суматошный Нью-Йорк на более спокойный небольшой городок, чтобы отдохнуть, а заодно приобщиться к тамошней культуре.
Description: Герои фильма Линда и Джордж — самые обыкновенные городские жители. И живут они в самом обыкновенном Нью-Йорке. Но что делать, когда быт и окружающие тебя люди, то, чем ты занимаешься, да и вообще всё вокруг, начинает тебя жутко раздражать? Выход один — сменить обстановку. Так и поступает семейная пара, меняя суматошный Нью-Йорк на более спокойный небольшой городок, чтобы отдохнуть, а заодно приобщиться к тамошней культуре.
Release Date: 2012-02-24T08:00:00Z
Genre: Comedy
Comments: «Leave your baggage behind.»
Artist: Дэвид Уэйн
Name: Страсть к перемене мест
Доп инфо &amp; Thx
Релиз от: Grimlen



Вернуться к началу
 Профиль Отправить личное сообщение  
 
   Похожие торренты   Автор   Торрент   Размер 
В этой теме нет новых непрочитанных сообщений. Аппетит к любви / Appetite for Love (Дэвид Маккэй / David Mackay) [2016г., мелодрама, комедия, HDTV 720p] MVO

Alfredovich

0 | 0

2.55 ГБ

В этой теме нет новых непрочитанных сообщений. Жаркое американское лето: Первый день лагеря / Wet Hot American Summer: First Day of Camp [S01] (Дэвид Уэйн) [комедия, 2015] WEBRip [NewStudio]

Dracon

87 | 12

2.73 ГБ

В этой теме нет новых непрочитанных сообщений. Жаркое американское лето: Первый день лагеря / Wet Hot American Summer: First Day of Camp [S01] (Дэвид Уэйн) [комедия, 2015] WEBRip 720p [NewStudio]

Dracon

577 | 238

8.18 ГБ

В этой теме нет новых непрочитанных сообщений. Третий лишний / Ted [фэнтези, комедия, 2012] BDRip 720p, Dub [iPad] [Лицензия]

salma3

16 | 10

2.67 ГБ

В этой теме нет новых непрочитанных сообщений. Бриджит Джонс 3 / Bridget Jones's Baby [мелодрама, комедия, 2016] BDRip 720p, Dub [iPad] [Лицензия]

salma3

45 | 15

2.4 ГБ

В этой теме нет новых непрочитанных сообщений. Джанго освобожденный / Django Unchained [драма, вестерн, приключения, комедия, 2012] BDRip 720p, Dub [iPad] [Лицензия]

salma3

96 | 10

3.47 ГБ

В этой теме нет новых непрочитанных сообщений. Рождество в Эль-Камино / El Camino Christmas (Дэвид Е. Талберт / David E. Talbert) [2017г., комедия, WEB-DLRip] MVO

Alfredovich

66 | 3

1.37 ГБ


Начать новую тему Ответить на тему  [ 1 сообщение ] 




Для Мосгорсуда, Роскомнадзора и рекламодателей:: mosgorsud-torrent[собачка]yandex.ru
cron