Торрент файл
скачать торрент магнет ссылка Добавлен: 05 янв 2013, 22:39
Размер: 1.94 ГБ
Сидеров: 4
Личеров: 4
Автор

СообщениеДобавлено: 05 янв 2013, 22:39 

Не в сети
Супермодератор
Аватара пользователя
Дата регистрации:
11 апр 2010, 18:10
Спасибо: 5995 / 7
Сообщения: 56685
id="p-25224744-1">Эволюция / Наследие / Борна / The Bourne Legacy

Год выпуска: 2012
Страна: США
Жанр: боевик, триллер, детектив, приключения
Продолжительность: 02:15:02
Рейтинг MPAA: PG-13
Рейтинг КиноПоиск: 6.602
Рейтинг IMDb: 6.8
Перевод: Профессиональный (дублированный)
Оригинальная аудиодорожка: есть
Cубтитры: русские и английские
Режиссёр: Тони Гилрой / Tony Gilroy
Сценарий: Тони Гилрой, Дэн Гилрой, Роберт Ладлэм
Продюссер: Патрик Краули, Фрэнк Маршалл, Бен Смит
В ролях: Джереми Реннер, Рейчел Вайс, Эдвард Нортон, Джоан Аллен, Альберт Финни, Скотт Гленн, Стейси Кич, Донна Мерфи, Майкл Чернус, Кори Столл
Описание:
В игре всегда несколько фигур. Одна из них — Джейсон Борн, другая — совершенный агент Аарон Кросс. Их возможности безграничны. Но даже у идеального оружия бывают сбои…
Качество исходника: BDRip 1080p
Качество: HDRip
Разрешение: 480p
Формат: M4V
Видео: AVC at 1800 Кбит/сек, [email protected] (2.393) at 23.976 fps
Аудио: AAC at 128 Кбит/сек, 2 канала, 48,0 КГц
Аудио №2: AAC at 128 Кбит/сек, 2 канала, 48,0 КГц
iTunes Meta Tags
Код:
Media Type: Movie
XID: Apple:vendor_id:2012-tt1194173
Content ID: 562617876
ScreenWriters: Тони Гилрой, Дэн Гилрой, Роберт Ладлэм
Producers: Фрэнк Маршалл, Патрик Кроули
Director: Тони Гилрой
Cast: Джереми Реннер, Рейчел Вайс, Эдвард Нортон, Джоан Аллен, Альберт Финни, Скотт Гленн, Стейси Кич, Донна Мерфи, Майкл Чернус, Кори Столл
Long Description: В игре всегда несколько фигур. Одна из них — Джейсон Борн, другая — совершенный агент Кеннет Китсом. Их возможности безграничны. Но даже у идеального оружия бывают сбои…
Description: В игре всегда несколько фигур. Одна из них — Джейсон Борн, другая — совершенный агент Кеннет Китсом. Их возможности безграничны. Но даже у идеального оружия бывают сбои…
Release Date: 2012-08-10T07:00:00Z
Genre: Action & Adventure
Artist: Тони Гилрой
Name: Эволюция Борна
MediaInfo
Код:
Общее
Полное имя: E:\The Bourne Legacy.m4v
Формат: MPEG-4
Идентификатор кодека: M4V
Размер файла: 1,94 Гбайт
Продолжительность: 2 ч. 15 м.
Режим общего битрейта: Переменный
Общий поток: 2062 Кбит/сек
Название фильма: Эволюция Борна
Исполнитель: Тони Гилрой
Жанр: Action & Adventure
Дата записи: UTC 2012-08-10 07:00:00
Дата кодирования: UTC 2012-12-06 13:44:31
Дата пометки: UTC 2012-12-06 13:48:28
Программа кодирования: MkvToMp4 [www.mkvtomp4.ru] version 0.222
Обложка: Yes
desc: В игре всегда несколько фигур. Одна из них — Джейсон Борн, другая — совершенный агент Кеннет Китсом. Их возможности безграничны. Но даже у идеального оружия бывают сбои…
ldes: В игре всегда несколько фигур. Одна из них — Джейсон Борн, другая — совершенный агент Кеннет Китсом. Их возможности безграничны. Но даже у идеального оружия бывают сбои…
hdvd: 0
stik: 9
cnID: 562617876
xid: Apple:vendor_id:2012-tt1194173
iTunEXTC: mpaa|PG-13|300|
iTunMOVI: <?xml version="1.0" encoding="UTF-8"?> / <!DOCTYPE plist PUBLIC "-/Apple/DTD PLIST 1.0/EN" "http://www.apple.com/DTDs/PropertyList-1.0.dtd"> / <plist version="1.0"> /<dict> /<key>cast</key> /<array> /<dict> /<key>name</key> /<string>Джереми Реннер</string> /</dict> /<dict> /<key>name</key> /<string>Рейчел Вайс</string> /</dict> /<dict> /<key>name</key> /<string>Эдвард Нортон</string> /</dict> /<dict> /<key>name</key> /<string>Джоан Аллен</string> /</dict> /<dict> /<key>name</key> /<string>Альберт Финни</string> /</dict> /<dict> /<key>name</key> /<string>Скотт Гленн</string> /</dict> /<dict> /<key>name</key> /<string>Стейси Кич</string> /</dict> /<dict> /<key>name</key> /<string>Донна Мерфи</string> /</dict> /<dict> /<key>name</key> /<string>Майкл Чернус</string> /</dict> /<dict> /<key>name</key> /<string>Кори Столл</string> /</dict> /</array> /<key>directors</key> /<array> /<dict> /<key>name</key> /<string>Тони Гилрой</string> /</dict> /</array> /<key>producers</key> /<array> /<dict> /<key>name</key> /<string>Фрэнк Маршалл</string> /</dict> /<dict> /<key>name</key> /<string>Патрик Кроули</string> /</dict> /</array> /<key>screenwriters</key> /<array> /<dict> /<key>name</key> /<string>Тони Гилрой</string> /</dict> /<dict> /<key>name</key> /<string>Дэн Гилрой</string> /</dict> /<dict> /<key>name</key> /<string>Роберт Ладлэм</string> /</dict> /</array> /</dict> / </plist>
Видео
Идентификатор: 1
Формат: AVC
Формат/Информация: Advanced Video Codec
Профиль формата: [email protected]
Параметр CABAC формата: Нет
Параметр ReFrames формата: 2 кадра
Параметр GOP формата: N=1
Идентификатор кодека: avc1
Идентификатор кодека/Информация: Advanced Video Coding
Продолжительность: 2 ч. 15 м.
Битрейт: 1800 Кбит/сек
Максимальный битрейт: 8479 Кбит/сек
Ширина: 640 пикселей
Высота: 356 пикселей
Соотношение сторон: 2,40:1
Режим частоты кадров: Переменный
Частота кадров: 23,976 кадра/сек
Минимальная частота кадров: 23,810 кадра/сек
Максимальная частота кадров: 24,390 кадра/сек
Цветовое пространство: YUV
Субдискретизация насыщенности: 4:2:0
Битовая глубина: 8 бит
Тип развёртки: Прогрессивная
Бит/(Пиксели*Кадры): 0.330
Размер потока: 1,70 Гбайт (87%)
Библиотека кодирования: x264 core 120
Настройки программы: cabac=0 / ref=2 / deblock=1:0:0 / analyse=0x1:0x111 / me=umh / subme=8 / psy=1 / psy_rd=1.00:0.00 / mixed_ref=1 / me_range=16 / chroma_me=1 / trellis=0 / 8x8dct=0 / cqm=0 / deadzone=21,11 / fast_pskip=1 / chroma_qp_offset=-2 / threads=6 / sliced_threads=0 / nr=0 / decimate=1 / interlaced=0 / bluray_compat=0 / constrained_intra=0 / bframes=0 / weightp=0 / keyint=240 / keyint_min=24 / scenecut=40 / intra_refresh=0 / rc_lookahead=40 / rc=2pass / mbtree=1 / bitrate=1800 / ratetol=1.0 / qcomp=0.60 / qpmin=3 / qpmax=69 / qpstep=4 / cplxblur=20.0 / qblur=0.5 / ip_ratio=1.40 / aq=1:1.00
Язык: English
Дата кодирования: UTC 2012-12-06 13:44:31
Дата пометки: UTC 2012-12-06 13:46:51
Основные цвета: BT.709
Характеристики трансфера: BT.709
Коэффициенты матрицы: BT.709
Аудио #1
Идентификатор: 2
Формат: AAC
Формат/Информация: Advanced Audio Codec
Профиль формата: LC
Идентификатор кодека: 40
Продолжительность: 2 ч. 14 м.
Вид битрейта: Переменный
Битрейт: 128 Кбит/сек
Максимальный битрейт: 203 Кбит/сек
Каналы: 2 канала
Расположение каналов: Front: L R
Частота: 48,0 КГц
Метод сжатия: С потерями
Размер потока: 123 Мбайт (6%)
Язык: Russian
Дата кодирования: UTC 2012-12-06 13:46:26
Дата пометки: UTC 2012-12-06 13:46:51
Аудио #2
Идентификатор: 3
Формат: AAC
Формат/Информация: Advanced Audio Codec
Профиль формата: LC
Идентификатор кодека: 40
Продолжительность: 2 ч. 15 м.
Вид битрейта: Переменный
Битрейт: 128 Кбит/сек
Максимальный битрейт: 205 Кбит/сек
Каналы: 2 канала
Расположение каналов: Front: L R
Частота: 48,0 КГц
Метод сжатия: С потерями
Размер потока: 123 Мбайт (6%)
Язык: English
Дата кодирования: UTC 2012-12-06 13:46:39
Дата пометки: UTC 2012-12-06 13:46:51
Текст #1
Идентификатор: 4
Формат: Timed text
Режим смешивания: sbtl
Идентификатор кодека: tx3g
Продолжительность: 2 ч. 14 м.
Вид битрейта: Переменный
Битрейт: 87 бит/сек
Размер потока: 86,1 Кбайт (0%)
Заголовок: Full
Язык: Russian
Дата кодирования: UTC 2012-12-06 13:46:51
Дата пометки: UTC 2012-12-06 13:46:51
Текст #2
Идентификатор: 5
Формат: Timed text
Режим смешивания: sbtl
Идентификатор кодека: tx3g
Продолжительность: 2 ч. 5 м.
Вид битрейта: Переменный
Битрейт: 61 бит/сек
Размер потока: 55,8 Кбайт (0%)
Заголовок: Full
Язык: English
Дата кодирования: UTC 2012-12-06 13:46:51
Дата пометки: UTC 2012-12-06 13:46:51
Текст #3
Идентификатор: 6
Формат: Timed text
Режим смешивания: sbtl
Идентификатор кодека: tx3g
Продолжительность: 2 ч. 14 м.
Вид битрейта: Переменный
Битрейт: 2 бит/сек
Размер потока: 1,81 Кбайт (0%)
Заголовок: Forced
Язык: Russian
Дата кодирования: UTC 2012-12-06 13:46:51
Дата пометки: UTC 2012-12-06 13:46:51

x264 лог
Код:
x264 [info]: frame I:5982Avg QP:17.89size: 26949PSNR Mean Y:45.78 U:49.59 V:48.63 Avg:46.59 Global:46.08
x264 [info]: frame P:188279 Avg QP:18.93size:8824PSNR Mean Y:44.09 U:48.33 V:47.52 Avg:44.99 Global:44.49
x264 [info]: mb II16..4: 22.5%0.0% 77.5%
x264 [info]: mb PI16..4:1.4%0.0%5.9%P16..4: 44.5% 25.1% 10.4%0.0%0.0%skip:12.6%
x264 [info]: coded y,uvDC,uvAC intra: 78.3% 86.4% 63.5% inter: 32.7% 29.6% 6.4%
x264 [info]: i16 v,h,dc,p: 40% 14%8% 38%
x264 [info]: i4 v,h,dc,ddl,ddr,vr,hd,vl,hu: 19%5%4% 12% 15% 15% 11% 11%8%
x264 [info]: i8c dc,h,v,p: 46% 16% 26% 12%
x264 [info]: ref P L0: 70.7% 29.3%
x264 [info]: SSIM Mean Y:0.9785466 (16.685db)
x264 [info]: PSNR Mean Y:44.138 U:48.368 V:47.556 Avg:45.040 Global:44.532 kb/s:1799.63

Скриншоты



Вернуться к началу
 Профиль Отправить личное сообщение  
 
   Похожие торренты   Автор   Торрент   Размер 
В этой теме нет новых непрочитанных сообщений. Эволюция Борна / The Bourne Legacy [Боевик, Триллер, Детектив, 2012] HDRip, Avo [Живов]

salma3

150 | 8

1.46 ГБ

В этой теме нет новых непрочитанных сообщений. Эволюция Борна / The Bourne Legacy [Боевик, триллер, детектив, 2012] BDRemux, Dub

salma3

2 | 3

51.63 ГБ

В этой теме нет новых непрочитанных сообщений. Превосходство Борна / The Bourne Supremacy [боевик, триллер, детектив, 2004] WEB-DLRip-AVC, Dub [Open Matte]

salma3

0 | 0

2.18 ГБ

В этой теме нет новых непрочитанных сообщений. Превосходство Борна / The Bourne Supremacy [боевик, триллер, детектив, 2004] WEB-DL 1080p, Dub [Open Matte]

salma3

0 | 0

14.44 ГБ

В этой теме нет новых непрочитанных сообщений. Идентификация Борна / The Bourne Identity [боевик, триллер, детектив, 2002] Hybrid 1080p, Dub [Open Matte]

salma3

0 | 0

19.14 ГБ

В этой теме нет новых непрочитанных сообщений. Идентификация Борна / The Bourne Identity [Боевик, триллер, криминал, 2002] BDRemux 1080p, Dub

salma3

9 | 28

30.42 ГБ

В этой теме нет новых непрочитанных сообщений. Превосходство Борна / The Bourne Supremacy [Боевик, триллер, криминал, 2004] BDRemux 1080p, Dub

salma3

0 | 10

26.34 ГБ


Начать новую тему Ответить на тему  [ 1 сообщение ] 




Для Мосгорсуда, Роскомнадзора и рекламодателей:: mosgorsud-torrent[собачка]yandex.ru
cron