Торрент файл
скачать торрент магнет ссылка Добавлен: 05 янв 2013, 22:36
Размер: 7.84 ГБ
Сидеров: 1
Личеров: 2
Автор

СообщениеДобавлено: 05 янв 2013, 22:36 

Не в сети
Супермодератор
Аватара пользователя
Дата регистрации:
11 апр 2010, 18:10
Спасибо: 5996 / 7
Сообщения: 56684
id="p-25224744-1">Ганнибал. Коллекция / Hannibal Collection
Молчание ягнят / The Silence of the Lambs

Год выпуска: 1990
Страна: США
Жанр: триллер, криминал, детектив
Продолжительность: 01:58:32
Перевод : Профессиональный (полное дублирование)
Русские субтитры: есть
Режиссёр: Джонатан Демме / Jonathan Demme
В ролях: Джоди Фостер, Энтони Хопкинс, Брук Смит, Скотт Гленн, Тед Левайн, Энтони Хилд, Кейси Леммонс, Дайан Бэйкер, Чарльз Нэпьер, Роджер Корман
Описание: Психопат похищает и убивает молодых женщин по всему Среднему Западу Америки. ФБР, уверенное в том, что все преступления совершены одним и тем же человеком, поручает агенту Клариссе Стерлинг встретиться с заключенным-маньяком, который мог бы объяснить следствию психологические мотивы серийного убийцы и тем самым вывести на его след.Заключенный, доктор психиатрии Ганнибал Лектер, отбывает наказание за убийства и каннибализм. Он согласен помочь Клариссе лишь в том случае, если она попотчует его больное воображение подробностями своей сложной личной жизни. Такие двусмысленные отношения не только порождают в душе Клариссы внутренний конфликт, но и сталкивают ее лицом к лицу с помешанным до гениальности убийцей.
Воплощение дьявола настолько сильно, что ей может не хватить мужества и стойкости, чтобы остановить его…
Качество: HDRip
Формат: *.m4v
Видео кодек: H.264
аудио кодек: ААС
Разрешение: [email protected] анаморф
Другие параметры видео: AVC at 1800 Кбит/сек, 640 x [email protected] x 352 (2.420) at 23.976 fps
Аудио 1: AAC at 128 Кбит/сек, 2 канала, 48,0 КГц (Русский дублированный)
Аудио 2: AAC at 128 Кбит/сек, 2 канала, 48,0 КГц (Русский профессиональный многоголосый, Superbit)
Аудио 3: AAC at 128 Кбит/сек, 2 канала, 48,0 КГц (Русский профессиональный многоголосый, Киномания)
Аудио 4: AAC at 128 Кбит/сек, 2 канала, 48,0 КГц (Английский)
Вшитая обложка: есть
Доп. теги (режиссёр, актёры и т.д.): прописаны
Телешоу/видеоклип : не требуется
Главы: прописаны
Серия/сезон: не требуется
MediaInfo
Общее
Полное имя : E:\Hannibal Anthology\The Silence of the Lambs.m4v
Формат : MPEG-4
Идентификатор кодека : M4V
Размер файла : 1,92 Гбайт
Продолжительность : 1 ч. 58 м.
Режим общего битрейта : Переменный
Общий поток : 2322 Кбит/сек
Название фильма : Молчание ягнят
Исполнитель : Джонатан Демме
Жанр : криминал & драма & саспенс & триллер
Дата записи : 1991-02-13
Дата кодирования : UTC 2012-11-29 11:56:46
Дата пометки : UTC 2012-11-29 12:00:51
Программа кодирования : MkvToMp4 [www.mkvtomp4.ru] version 0.222
Правообладатель : Steamteam [RG Apple]
Обложка : Yes
desc : Психопат похищает и убивает молодых женщин по всему Среднему Западу Америки. ФБР, уверенное в том, что все преступления совершены одним и тем же человеком, поручает агенту Клариссе Стерлинг встретиться с заключенным-маньяком, который мог бы объяснить
ldes : Психопат похищает и убивает молодых женщин по всему Среднему Западу Америки. ФБР, уверенное в том, что все преступления совершены одним и тем же человеком, поручает агенту Клариссе Стерлинг встретиться с заключенным-маньяком, который мог бы объяснить следствию психологические мотивы серийного убийцы и тем самым вывести на его след.
hdvd : 0
stik : 9
xid : Apple:vendor_id:1991-tt0102926
iTunEXTC : mpaa|R|400|
iTunMOVI : <?xml version="1.0" encoding="UTF-8"?> / <!DOCTYPE plist PUBLIC "-/Apple/DTD PLIST 1.0/EN" "http://www.apple.com/DTDs/PropertyList-1.0.dtd"> / <plist version="1.0"> / <dict> / <key>cast</key> / <array> / <dict> / <key>name</key> / <string>Джоди Фостер</string> / </dict> / <dict> / <key>name</key> / <string>Энтони Хопкинс</string> / </dict> / <dict> / <key>name</key> / <string>Брук Смит</string> / </dict> / <dict> / <key>name</key> / <string>Скотт Гленн</string> / </dict> / <dict> / <key>name</key> / <string>Тед Левайн</string> / </dict> / <dict> / <key>name</key> / <string>Энтони Хилд</string> / </dict> / <dict> / <key>name</key> / <string>Кейси Леммонс</string> / </dict> / <dict> / <key>name</key> / <string>Дайан Бэйкер</string> / </dict> / <dict> / <key>name</key> / <string>Чарльз Нэпьер</string> / </dict> / <dict> / <key>name</key> / <string>Роджер Корман</string> / </dict> / </array> / <key>directors</key> / <array> / <dict> / <key>name</key> / <string>Джонатан Демме</string> / </dict> / </array> / <key>producers</key> / <array> / <dict> / <key>name</key> / <string>Рональд М. Бозман</string> / </dict> / <dict> / <key>name</key> / <string>Эдвард Саксон</string> / </dict> / <dict> / <key>name</key> / <string>Кеннет Атт</string> / </dict> / </array> / <key>screenwriters</key> / <array> / <dict> / <key>name</key> / <string>Тед Тэлли</string> / </dict> / <dict> / <key>name</key> / <string>Томас Харрис</string> / </dict> / </array> / </dict> / </plist>
Видео
Идентификатор : 1
Формат : AVC
Формат/Информация : Advanced Video Codec
Профиль формата : [email protected]
Параметр CABAC формата : Нет
Параметр ReFrames формата : 2 кадра
Идентификатор кодека : avc1
Идентификатор кодека/Информация : Advanced Video Coding
Продолжительность : 1 ч. 58 м.
Битрейт : 1800 Кбит/сек
Максимальный битрейт : 7673 Кбит/сек
Ширина : 640 пикселей
Высота : 460 пикселей
Соотношение сторон : 1,85:1
Режим частоты кадров : Переменный
Частота кадров : 23,976 кадра/сек
Минимальная частота кадров : 23,810 кадра/сек
Максимальная частота кадров : 24,390 кадра/сек
Цветовое пространство : YUV
Субдискретизация насыщенности : 4:2:0
Битовая глубина : 8 бит
Тип развёртки : Прогрессивная
Бит/(Пиксели*Кадры) : 0.255
Размер потока : 1,49 Гбайт (78%)
Библиотека кодирования : x264 core 120
Настройки программы : cabac=0 / ref=2 / deblock=1:0:0 / analyse=0x1:0x111 / me=umh / subme=8 / psy=1 / psy_rd=1.00:0.00 / mixed_ref=1 / me_range=16 / chroma_me=1 / trellis=0 / 8x8dct=0 / cqm=0 / deadzone=21,11 / fast_pskip=1 / chroma_qp_offset=-2 / threads=6 / sliced_threads=0 / nr=0 / decimate=1 / interlaced=0 / bluray_compat=0 / constrained_intra=0 / bframes=0 / weightp=0 / keyint=240 / keyint_min=24 / scenecut=40 / intra_refresh=0 / rc_lookahead=40 / rc=2pass / mbtree=1 / bitrate=1800 / ratetol=1.0 / qcomp=0.60 / qpmin=3 / qpmax=69 / qpstep=4 / cplxblur=20.0 / qblur=0.5 / ip_ratio=1.40 / aq=1:1.00
Язык : English
Дата кодирования : UTC 2012-11-29 11:56:46
Дата пометки : UTC 2012-11-29 11:59:02
Основные цвета : BT.709
Характеристики трансфера : BT.709
Коэффициенты матрицы : BT.709
Аудио #1
Идентификатор : 2
Формат : AAC
Формат/Информация : Advanced Audio Codec
Профиль формата : LC
Идентификатор кодека : 40
Продолжительность : 1 ч. 58 м.
Вид битрейта : Переменный
Битрейт : 128 Кбит/сек
Максимальный битрейт : 258 Кбит/сек
Каналы : 2 канала
Расположение каналов : Front: L R
Частота : 48,0 КГц
Метод сжатия : С потерями
Размер потока : 108 Мбайт (6%)
Заголовок : Dub
Язык : Russian
Дата кодирования : UTC 2012-11-29 11:58:16
Дата пометки : UTC 2012-11-29 11:59:02
Аудио #2
Идентификатор : 3
Формат : AAC
Формат/Информация : Advanced Audio Codec
Профиль формата : LC
Идентификатор кодека : 40
Продолжительность : 1 ч. 58 м.
Вид битрейта : Переменный
Битрейт : 128 Кбит/сек
Максимальный битрейт : 256 Кбит/сек
Каналы : 2 канала
Расположение каналов : Front: L R
Частота : 48,0 КГц
Метод сжатия : С потерями
Размер потока : 108 Мбайт (6%)
Заголовок : Superbit
Язык : Russian
Дата кодирования : UTC 2012-11-29 11:58:28
Дата пометки : UTC 2012-11-29 11:59:02
Аудио #3
Идентификатор : 4
Формат : AAC
Формат/Информация : Advanced Audio Codec
Профиль формата : LC
Идентификатор кодека : 40
Продолжительность : 1 ч. 58 м.
Вид битрейта : Переменный
Битрейт : 128 Кбит/сек
Максимальный битрейт : 253 Кбит/сек
Каналы : 2 канала
Расположение каналов : Front: L R
Частота : 48,0 КГц
Метод сжатия : С потерями
Размер потока : 108 Мбайт (6%)
Заголовок : Kinomania
Язык : Russian
Дата кодирования : UTC 2012-11-29 11:58:40
Дата пометки : UTC 2012-11-29 11:59:02
Аудио #4
Идентификатор : 5
Формат : AAC
Формат/Информация : Advanced Audio Codec
Профиль формата : LC
Идентификатор кодека : 40
Продолжительность : 1 ч. 58 м.
Вид битрейта : Переменный
Битрейт : 128 Кбит/сек
Максимальный битрейт : 257 Кбит/сек
Каналы : 2 канала
Расположение каналов : Front: L R
Частота : 48,0 КГц
Метод сжатия : С потерями
Размер потока : 108 Мбайт (6%)
Язык : English
Дата кодирования : UTC 2012-11-29 11:58:50
Дата пометки : UTC 2012-11-29 11:59:02
Текст #1
Идентификатор : 6
Формат : Timed text
Режим смешивания : sbtl
Идентификатор кодека : tx3g
Продолжительность : 1 ч. 52 м.
Вид битрейта : Переменный
Битрейт : 86 бит/сек
Размер потока : 71,4 Кбайт (0%)
Заголовок : Dub
Язык : Russian
Дата кодирования : UTC 2012-11-29 11:59:02
Дата пометки : UTC 2012-11-29 11:59:02
Текст #2
Идентификатор : 7
Формат : Timed text
Режим смешивания : sbtl
Идентификатор кодека : tx3g
Продолжительность : 1 ч. 52 м.
Вид битрейта : Переменный
Битрейт : 76 бит/сек
Размер потока : 62,8 Кбайт (0%)
Заголовок : Superbit
Язык : Russian
Дата кодирования : UTC 2012-11-29 11:59:02
Дата пометки : UTC 2012-11-29 11:59:02
Текст #3
Идентификатор : 8
Формат : Timed text
Режим смешивания : sbtl
Идентификатор кодека : tx3g
Продолжительность : 1 ч. 52 м.
Вид битрейта : Переменный
Битрейт : 87 бит/сек
Размер потока : 72,2 Кбайт (0%)
Заголовок : Kinomania
Язык : Russian
Дата кодирования : UTC 2012-11-29 11:59:02
Дата пометки : UTC 2012-11-29 11:59:02
Текст #4
Идентификатор : 9
Формат : Timed text
Режим смешивания : sbtl
Идентификатор кодека : tx3g
Продолжительность : 1 ч. 50 м.
Вид битрейта : Переменный
Битрейт : 0 бит/сек
Размер потока : 384 байт (0%)
Заголовок : Inscriptions
Язык : Russian
Дата кодирования : UTC 2012-11-29 11:59:02
Дата пометки : UTC 2012-11-29 11:59:02
Текст #5
Идентификатор : 10
Формат : Timed text
Режим смешивания : sbtl
Идентификатор кодека : tx3g
Продолжительность : 1 ч. 52 м.
Вид битрейта : Переменный
Битрейт : 60 бит/сек
Размер потока : 49,7 Кбайт (0%)
Язык : English
Дата кодирования : UTC 2012-11-29 11:59:02
Дата пометки : UTC 2012-11-29 11:59:02

x264 log
Код:
Код:
x264 [info]: frame I:2282  Avg QP:17.21  size: 34264  PSNR Mean Y:46.27 U:51.60 V:52.51 Avg:47.46 Global:47.03
x264 [info]: frame P:168225 Avg QP:19.03  size:  9049  PSNR Mean Y:43.97 U:49.59 V:50.05 Avg:45.18 Global:44.61
x264 [info]: mb I  I16..4: 20.4%  0.0% 79.6%
x264 [info]: mb P  I16..4:  0.6%  0.0%  1.6%  P16..4: 49.1% 26.3% 10.6%  0.0%  0.0%    skip:11.9%
x264 [info]: coded y,uvDC,uvAC intra: 84.7% 72.8% 38.7% inter: 34.1% 23.4% 0.9%
x264 [info]: i16 v,h,dc,p: 43% 10%  9% 37%
x264 [info]: i4 v,h,dc,ddl,ddr,vr,hd,vl,hu:  9%  4%  4% 15% 18% 18% 12% 13%  8%
x264 [info]: i8c dc,h,v,p: 50% 15% 26%  9%
x264 [info]: ref P L0: 73.2% 26.8%
x264 [info]: SSIM Mean Y:0.9750938 (16.037db)
x264 [info]: PSNR Mean Y:44.001 U:49.622 V:50.086 Avg:45.213 Global:44.636 kb/s:1800.45


iTunes Meta Tags
Код:
Код:
Media Type: Movie
XID: Apple:vendor_id:1991-tt0102926
Copyright: Steamteam [RG Apple]
ScreenWriters: Тед Тэлли, Томас Харрис
Producers: Рональд М. Бозман, Эдвард Саксон, Кеннет Атт
Director: Джонатан Демме
Cast: Джоди Фостер, Энтони Хопкинс, Брук Смит, Скотт Гленн, Тед Левайн, Энтони Хилд, Кейси Леммонс, Дайан Бэйкер, Чарльз Нэпьер, Роджер Корман
Long Description: Психопат похищает и убивает молодых женщин по всему Среднему Западу Америки. ФБР, уверенное в том, что все преступления совершены одним и тем же человеком, поручает агенту Клариссе Стерлинг встретиться с заключенным-маньяком, который мог бы объяснить следствию психологические мотивы серийного убийцы и тем самым вывести на его след.
Description: Психопат похищает и убивает молодых женщин по всему Среднему Западу Америки. ФБР, уверенное в том, что все преступления совершены одним и тем же человеком, поручает агенту Клариссе Стерлинг встретиться с заключенным-маньяком, который мог бы объяснить
Release Date: 1991-02-13
Genre: криминал & драма & саспенс & триллер
Artist: Джонатан Демме
Name: Молчание ягнят

Скриншоты

Ганнибал / Hannibal

Год выпуска: 2001
Страна: США, Великобритания
Жанр: триллер, драма, криминал, детектив
Продолжительность: 02:11:20
Перевод : Профессиональный (полное дублирование)
Русские субтитры: есть
Режиссёр: Ридли Скотт / Ridley Scott
В ролях: Энтони Хопкинс, Джулианна Мур, Гари Олдман, Рэй Лиотта, Джанкарло Джаннини, Фрэнки Фэйзон, Франческа Нери, Желько Иванек, Хазелль Гудман, Дэвид Эндрюс
Описание: По прошествии десяти лет тревожного молчания гениальный Ганнибал Лектер пишет письмо агенту ФБР Кларисе Старлинг, предлагая ей возобновить их прервавшуюся интеллектуальную дуэль.С помощью миллионера Мейсона Верджера, ставшего очередной жертвой безумного доктора и мечтающего теперь скормить Лектера стае прожорливых кабанов, Клариса выходит на след неуловимого маньяка и вскоре узнает о том, что за ним уже охотится инспектор флорентийской полиции Риналдо Пацци, рассчитывающий получить за его поимку щедрое вознаграждение.
Но примитивные ловушки — слабая преграда для голодного каннибала, который все ближе подбирается к Кларисе, чтобы пригласить свою фаворитку на самую страшную трапезу в ее жизни…
Качество: HDRip
Формат: *.m4v
Видео кодек: H.264
аудио кодек: ААС
Разрешение: [email protected] анаморф
Другие параметры видео: AVC at 1800 Кбит/сек, [email protected] (1.852) at 24.000 fps
Аудио 1: AAC at 128 Кбит/сек, 2 канала, 48,0 КГц (Русский дублированный)
Аудио 2: AAC at 128 Кбит/сек, 2 канала, 48,0 КГц (Русский профессиональный двухголосый, Гланц и Королева)
Аудио 3: AAC at 128 Кбит/сек, 2 канала, 48,0 КГц (Английский)
Вшитая обложка: есть
Доп. теги (режиссёр, актёры и т.д.): прописаны
Телешоу/видеоклип : не требуется
Главы: прописаны
Серия/сезон: не требуется
MediaInfo
Общее
Полное имя : E:\Hannibal Anthology\Hannibal.m4v
Формат : MPEG-4
Идентификатор кодека : M4V
Размер файла : 2,02 Гбайт
Продолжительность : 2 ч. 11 м.
Режим общего битрейта : Переменный
Общий поток : 2197 Кбит/сек
Название фильма : Ганнибал
Исполнитель : Ридли Скотт
Жанр : Thriller
Дата записи : UTC 2001-02-09 08:00:00
Дата кодирования : UTC 2012-11-30 20:33:25
Дата пометки : UTC 2012-12-01 08:46:39
Программа кодирования : MkvToMp4 [www.mkvtomp4.ru] version 0.222
Правообладатель : Steamteam [RG Apple]
Обложка : Yes
desc : По прошествии десяти лет тревожного молчания гениальный Ганнибал Лектер пишет письмо агенту ФБР Кларисе Старлинг, предлагая ей возобновить их прервавшуюся интеллектуальную дуэль.С помощью миллионера Мейсона Верджера, ставшего очередной жертвой безумн
ldes : По прошествии десяти лет тревожного молчания гениальный Ганнибал Лектер пишет письмо агенту ФБР Кларисе Старлинг, предлагая ей возобновить их прервавшуюся интеллектуальную дуэль.С помощью миллионера Мейсона Верджера, ставшего очередной жертвой безумного доктора и мечтающего теперь скормить Лектера стае прожорливых кабанов, Клариса выходит на след неуловимого маньяка и вскоре узнает о том, что за ним уже охотится инспектор венецианской полиции Риналдо Пацци, рассчитывающий получить за его поимку щедрое вознаграждение.
hdvd : 0
stik : 9
akID : -1
sfID : 0
cnID : 271874890
xid : Apple:vendor_id:2001-tt0212985
iTunMOVI : <?xml version="1.0" encoding="UTF-8"?> / <!DOCTYPE plist PUBLIC "-/Apple/DTD PLIST 1.0/EN" "http://www.apple.com/DTDs/PropertyList-1.0.dtd"> / <plist version="1.0"> / <dict> / <key>cast</key> / <array> / <dict> / <key>name</key> / <string>Энтони Хопкинс</string> / </dict> / <dict> / <key>name</key> / <string>Джулианна Мур</string> / </dict> / <dict> / <key>name</key> / <string>Гари Олдман</string> / </dict> / <dict> / <key>name</key> / <string>Рэй Лиотта</string> / </dict> / <dict> / <key>name</key> / <string>Джанкарло Джаннини</string> / </dict> / <dict> / <key>name</key> / <string>Фрэнки Фэйзон</string> / </dict> / <dict> / <key>name</key> / <string>Франческа Нери</string> / </dict> / <dict> / <key>name</key> / <string>Желько Иванек</string> / </dict> / <dict> / <key>name</key> / <string>Хазелль Гудман</string> / </dict> / <dict> / <key>name</key> / <string>Дэвид Эндрюс</string> / </dict> / </array> / <key>directors</key> / <array> / <dict> / <key>name</key> / <string>Ридли Скотт</string> / </dict> / </array> / <key>producers</key> / <array> / <dict> / <key>name</key> / <string>Дино Де Лаурентис</string> / </dict> / <dict> / <key>name</key> / <string>Марта Де Лаурентис</string> / </dict> / <dict> / <key>name</key> / <string>Ридли Скотт</string> / </dict> / </array> / <key>screenwriters</key> / <array> / <dict> / <key>name</key> / <string>Дэвид Мэмет</string> / </dict> / <dict> / <key>name</key> / <string>Стивен Зеллиан</string> / </dict> / <dict> / <key>name</key> / <string>Томас Харрис</string> / </dict> / </array> / </dict> / </plist>
Видео
Идентификатор : 1
Формат : AVC
Формат/Информация : Advanced Video Codec
Профиль формата : [email protected]
Параметр CABAC формата : Нет
Параметр ReFrames формата : 2 кадра
Идентификатор кодека : avc1
Идентификатор кодека/Информация : Advanced Video Coding
Продолжительность : 2 ч. 11 м.
Битрейт : 1800 Кбит/сек
Максимальный битрейт : 12,2 Мбит/сек
Ширина : 640 пикселей
Высота : 460 пикселей
Соотношение сторон : 1,85:1
Режим частоты кадров : Переменный
Частота кадров : 24,000 кадра/сек
Минимальная частота кадров : 23,810 кадра/сек
Максимальная частота кадров : 24,390 кадра/сек
Цветовое пространство : YUV
Субдискретизация насыщенности : 4:2:0
Битовая глубина : 8 бит
Тип развёртки : Прогрессивная
Бит/(Пиксели*Кадры) : 0.255
Размер потока : 1,65 Гбайт (82%)
Библиотека кодирования : x264 core 120
Настройки программы : cabac=0 / ref=2 / deblock=1:0:0 / analyse=0x1:0x111 / me=umh / subme=8 / psy=1 / psy_rd=1.00:0.00 / mixed_ref=1 / me_range=16 / chroma_me=1 / trellis=0 / 8x8dct=0 / cqm=0 / deadzone=21,11 / fast_pskip=1 / chroma_qp_offset=-2 / threads=6 / sliced_threads=0 / nr=0 / decimate=1 / interlaced=0 / bluray_compat=0 / constrained_intra=0 / bframes=0 / weightp=0 / keyint=240 / keyint_min=24 / scenecut=40 / intra_refresh=0 / rc_lookahead=40 / rc=2pass / mbtree=1 / bitrate=1800 / ratetol=1.0 / qcomp=0.60 / qpmin=3 / qpmax=69 / qpstep=4 / cplxblur=20.0 / qblur=0.5 / ip_ratio=1.40 / aq=1:1.00
Язык : English
Дата кодирования : UTC 2012-11-30 20:33:25
Дата пометки : UTC 2012-11-30 20:35:52
Основные цвета : BT.709
Характеристики трансфера : BT.709
Коэффициенты матрицы : BT.709
Аудио #1
Идентификатор : 2
Формат : AAC
Формат/Информация : Advanced Audio Codec
Профиль формата : LC
Идентификатор кодека : 40
Продолжительность : 2 ч. 11 м.
Вид битрейта : Переменный
Битрейт : 128 Кбит/сек
Максимальный битрейт : 279 Кбит/сек
Каналы : 2 канала
Расположение каналов : Front: L R
Частота : 48,0 КГц
Метод сжатия : С потерями
Размер потока : 120 Мбайт (6%)
Заголовок : Dub
Язык : Russian
Дата кодирования : UTC 2012-11-30 20:35:15
Дата пометки : UTC 2012-11-30 20:35:52
Аудио #2
Идентификатор : 3
Формат : AAC
Формат/Информация : Advanced Audio Codec
Профиль формата : LC
Идентификатор кодека : 40
Продолжительность : 2 ч. 11 м.
Вид битрейта : Переменный
Битрейт : 128 Кбит/сек
Максимальный битрейт : 159 Кбит/сек
Каналы : 2 канала
Расположение каналов : Front: L R
Частота : 48,0 КГц
Метод сжатия : С потерями
Размер потока : 120 Мбайт (6%)
Заголовок : Glanz & Koroleva
Язык : Russian
Дата кодирования : UTC 2012-11-30 20:35:27
Дата пометки : UTC 2012-11-30 20:35:52
Аудио #3
Идентификатор : 4
Формат : AAC
Формат/Информация : Advanced Audio Codec
Профиль формата : LC
Идентификатор кодека : 40
Продолжительность : 2 ч. 11 м.
Вид битрейта : Переменный
Битрейт : 128 Кбит/сек
Максимальный битрейт : 236 Кбит/сек
Каналы : 2 канала
Расположение каналов : Front: L R
Частота : 48,0 КГц
Метод сжатия : С потерями
Размер потока : 120 Мбайт (6%)
Язык : English
Дата кодирования : UTC 2012-11-30 20:35:40
Дата пометки : UTC 2012-11-30 20:35:52
Текст #1
Идентификатор : 5
Формат : Timed text
Режим смешивания : sbtl
Идентификатор кодека : tx3g
Продолжительность : 2 ч. 11 м.
Вид битрейта : Переменный
Битрейт : 95 бит/сек
Размер потока : 91,2 Кбайт (0%)
Язык : Russian
Дата кодирования : UTC 2012-11-30 20:35:52
Дата пометки : UTC 2012-11-30 20:35:52
Текст #2
Идентификатор : 6
Формат : Timed text
Режим смешивания : sbtl
Идентификатор кодека : tx3g
Продолжительность : 2 ч. 11 м.
Вид битрейта : Переменный
Битрейт : 56 бит/сек
Размер потока : 54,3 Кбайт (0%)
Язык : English
Дата кодирования : UTC 2012-11-30 20:35:52
Дата пометки : UTC 2012-11-30 20:35:52
Текст #3
Идентификатор : 7
Формат : Apple text
Идентификатор кодека : text
Продолжительность : 2 ч. 11 м.
Битрейт : 0 бит/сек
Размер потока : 14,0 байт (0%)
Дата кодирования : UTC 2012-12-01 08:46:39
Дата пометки : UTC 2012-12-01 08:46:39

x264 log
Код:
Код:
x264 [info]: frame I:4317  Avg QP:14.19  size: 23845  PSNR Mean Y:49.96 U:60.78 V:61.01 Avg:50.93 Global:49.81
x264 [info]: frame P:184803 Avg QP:17.03  size:  9072  PSNR Mean Y:46.05 U:50.54 V:50.78 Avg:46.93 Global:46.42
x264 [info]: mb I  I16..4: 53.1%  0.0% 46.9%
x264 [info]: mb P  I16..4: 15.6%  0.0%  0.0%  P16..4: 69.0%  0.0%  0.0%  0.0%  0.0%    skip:15.4%
x264 [info]: final ratefactor: 16.37
x264 [info]: coded y,uvDC,uvAC intra: 56.7% 51.7% 25.3% inter: 37.6% 23.3% 1.6%
x264 [info]: i16 v,h,dc,p: 49% 17% 25%  9%
x264 [info]: i4 v,h,dc,ddl,ddr,vr,hd,vl,hu: 28% 16% 13%  7%  7%  9%  6%  8%  6%
x264 [info]: i8c dc,h,v,p: 60% 14% 23%  3%
x264 [info]: SSIM Mean Y:0.9867510 (18.778db)
x264 [info]: PSNR Mean Y:46.136 U:50.775 V:51.012 Avg:47.017 Global:46.471 kb/s:1806.48


iTunes Meta Tags
Код:
Код:
Media Type: Movie
XID: Apple:vendor_id:2001-tt0212985
Content ID: 271874890
Copyright: Steamteam [RG Apple]
ScreenWriters: Дэвид Мэмет, Стивен Зеллиан, Томас Харрис
Producers: Дино Де Лаурентис, Марта Де Лаурентис, Ридли Скотт
Director: Ридли Скотт
Cast: Энтони Хопкинс, Джулианна Мур, Гари Олдман, Рэй Лиотта, Джанкарло Джаннини, Фрэнки Фэйзон, Франческа Нери, Желько Иванек, Хазелль Гудман, Дэвид Эндрюс
Long Description: По прошествии десяти лет тревожного молчания гениальный Ганнибал Лектер пишет письмо агенту ФБР Кларисе Старлинг, предлагая ей возобновить их прервавшуюся интеллектуальную дуэль.С помощью миллионера Мейсона Верджера, ставшего очередной жертвой безумного доктора и мечтающего теперь скормить Лектера стае прожорливых кабанов, Клариса выходит на след неуловимого маньяка и вскоре узнает о том, что за ним уже охотится инспектор венецианской полиции Риналдо Пацци, рассчитывающий получить за его поимку щедрое вознаграждение.
Description: По прошествии десяти лет тревожного молчания гениальный Ганнибал Лектер пишет письмо агенту ФБР Кларисе Старлинг, предлагая ей возобновить их прервавшуюся интеллектуальную дуэль.С помощью миллионера Мейсона Верджера, ставшего очередной жертвой безумн
Release Date: 2001-02-09T08:00:00Z
Genre: Thriller
Artist: Ридли Скотт
Name: Ганнибал

Скриншоты

Красный Дракон / Red Dragon

Год выпуска: 2002
Страна: США, Великобритания
Жанр: триллер, криминал, детектив
Продолжительность: 02:04:26
Перевод : Профессиональный (полное дублирование)
Русские субтитры: есть
Режиссёр: Бретт Рэтнер / Brett Ratner
В ролях: Энтони Хопкинс, Эдвард Нортон, Рэйф Файнс, Харви Кейтель, Эмили Уотсон, Мэри-Луиз Паркер, Филип Сеймур Хоффман, Энтони Хилд, Кен Люн, Фрэнки Фэйзон
Описание: Действие этой ленты разворачивается до событий, описанных в «Молчании ягнят» и до появления Клариссы Старлинг. Мы знакомимся с человеком, поймавшим Ганнибала Лектера, — специальным агентом ФБР Уиллом Грэмом. После ареста Лектера, который едва не стоил Грэму жизни, Уилл уходит со службы в Бюро.Однако, появление нового жуткого серийного убийцы заставляет Грэма вернуться на службу. Этот безжалостный монстр, которого пресса уже окрестила «Зубной Феей», ночами вырезает целые семейства. Теперь Уиллу нужен совет от опытного специалиста по психическим аномалиям, и он обращается за помощью к своему старому знакомому… доктору «Ганнибалу-каннибалу» Лектеру!
Качество: HDRip
Формат: *.m4v
Видео кодек: H.264
аудио кодек: ААС
Разрешение: [email protected] анаморф
Другие параметры видео: AVC at 1800 Кбит/сек, [email protected] (2.420) at 23.976 fps
Аудио 1: AAC at 128 Кбит/сек, 2 канала, 48,0 КГц (Русский дублированный)
Аудио 2: AAC at 128 Кбит/сек, 2 канала, 48,0 КГц (Русский профессиональный двухголосый, Гланц и Королева)
Аудио 3: AAC at 128 Кбит/сек, 2 канала, 48,0 КГц (Английский)
Вшитая обложка: есть
Доп. теги (режиссёр, актёры и т.д.): прописаны
Телешоу/видеоклип : не требуется
Главы: прописаны
Серия/сезон: не требуется
MediaInfo
Общее
Полное имя : E:\Hannibal Anthology\Red Dragon.m4v
Формат : MPEG-4
Идентификатор кодека : M4V
Размер файла : 1,90 Гбайт
Продолжительность : 2 ч. 4 м.
Режим общего битрейта : Переменный
Общий поток : 2191 Кбит/сек
Название фильма : Красный Дракон
Исполнитель : Бретт Рэтнер
Жанр : Thriller
Дата записи : UTC 2002-10-04 07:00:00
Дата кодирования : UTC 2012-12-01 12:42:54
Дата пометки : UTC 2012-12-01 12:46:57
Программа кодирования : MkvToMp4 [www.mkvtomp4.ru] version 0.222
Правообладатель : Steamteam [RG Apple]
Обложка : Yes
desc : Действие этой ленты разворачивается до событий, описанных в «Молчании ягнят» и до появления Клариссы Старлинг. Мы знакомимся с человеком, поймавшим Ганнибала Лектора, — специальным агентом ФБР Уиллом Грэмом. После ареста Лектора, который едва не стои
ldes : Действие этой ленты разворачивается до событий, описанных в «Молчании ягнят» и до появления Клариссы Старлинг. Мы знакомимся с человеком, поймавшим Ганнибала Лектора, — специальным агентом ФБР Уиллом Грэмом. После ареста Лектора, который едва не стоил Грэму жизни, Уилл уходит со службы в Бюро.Однако, появление нового жуткого серийного убийцы заставляет Грэма вернуться на службу. Этот безжалостный монстр, которого пресса уже окрестила «Зубной Феей», ночами вырезает целые семейства.
hdvd : 0
stik : 9
cnID : 293196164
xid : Apple:vendor_id:2002-tt0289765
iTunEXTC : mpaa|R|400|
iTunMOVI : <?xml version="1.0" encoding="UTF-8"?> / <!DOCTYPE plist PUBLIC "-/Apple/DTD PLIST 1.0/EN" "http://www.apple.com/DTDs/PropertyList-1.0.dtd"> / <plist version="1.0"> / <dict> / <key>cast</key> / <array> / <dict> / <key>name</key> / <string>Энтони Хопкинс</string> / </dict> / <dict> / <key>name</key> / <string>Эдвард Нортон</string> / </dict> / <dict> / <key>name</key> / <string>Рэйф Файнс</string> / </dict> / <dict> / <key>name</key> / <string>Харви Кейтель</string> / </dict> / <dict> / <key>name</key> / <string>Эмили Уотсон</string> / </dict> / <dict> / <key>name</key> / <string>Мэри-Луиз Паркер</string> / </dict> / <dict> / <key>name</key> / <string>Филип Сеймур Хоффман</string> / </dict> / <dict> / <key>name</key> / <string>Энтони Хилд</string> / </dict> / <dict> / <key>name</key> / <string>Кен Люн</string> / </dict> / <dict> / <key>name</key> / <string>Фрэнки Фэйзон</string> / </dict> / </array> / <key>directors</key> / <array> / <dict> / <key>name</key> / <string>Бретт Рэтнер</string> / </dict> / </array> / <key>producers</key> / <array> / <dict> / <key>name</key> / <string>Дино Де Лаурентис</string> / </dict> / <dict> / <key>name</key> / <string>Марта Де Лаурентис</string> / </dict> / <dict> / <key>name</key> / <string>Эндрю З. Дэвис</string> / </dict> / </array> / <key>screenwriters</key> / <array> / <dict> / <key>name</key> / <string>Тед Тэлли</string> / </dict> / <dict> / <key>name</key> / <string>Томас Харрис</string> / </dict> / </array> / </dict> / </plist>
Видео
Идентификатор : 1
Формат : AVC
Формат/Информация : Advanced Video Codec
Профиль формата : [email protected]
Параметр CABAC формата : Нет
Параметр ReFrames формата : 2 кадра
Параметр GOP формата : N=1
Идентификатор кодека : avc1
Идентификатор кодека/Информация : Advanced Video Coding
Продолжительность : 2 ч. 4 м.
Битрейт : 1800 Кбит/сек
Максимальный битрейт : 7556 Кбит/сек
Ширина : 640 пикселей
Высота : 352 пикселя
Соотношение сторон : 2,40:1
Режим частоты кадров : Переменный
Частота кадров : 23,976 кадра/сек
Минимальная частота кадров : 23,810 кадра/сек
Максимальная частота кадров : 24,390 кадра/сек
Цветовое пространство : YUV
Субдискретизация насыщенности : 4:2:0
Битовая глубина : 8 бит
Тип развёртки : Прогрессивная
Бит/(Пиксели*Кадры) : 0.333
Размер потока : 1,56 Гбайт (82%)
Библиотека кодирования : x264 core 120
Настройки программы : cabac=0 / ref=2 / deblock=1:0:0 / analyse=0x1:0x111 / me=umh / subme=8 / psy=1 / psy_rd=1.00:0.00 / mixed_ref=1 / me_range=16 / chroma_me=1 / trellis=0 / 8x8dct=0 / cqm=0 / deadzone=21,11 / fast_pskip=1 / chroma_qp_offset=-2 / threads=6 / sliced_threads=0 / nr=0 / decimate=1 / interlaced=0 / bluray_compat=0 / constrained_intra=0 / bframes=0 / weightp=0 / keyint=240 / keyint_min=24 / scenecut=40 / intra_refresh=0 / rc_lookahead=40 / rc=2pass / mbtree=1 / bitrate=1800 / ratetol=1.0 / qcomp=0.60 / qpmin=3 / qpmax=69 / qpstep=4 / cplxblur=20.0 / qblur=0.5 / ip_ratio=1.40 / aq=1:1.00
Язык : English
Дата кодирования : UTC 2012-12-01 12:42:54
Дата пометки : UTC 2012-12-01 12:45:07
Основные цвета : BT.709
Характеристики трансфера : BT.709
Коэффициенты матрицы : BT.709
Аудио #1
Идентификатор : 2
Формат : AAC
Формат/Информация : Advanced Audio Codec
Профиль формата : LC
Идентификатор кодека : 40
Продолжительность : 2 ч. 4 м.
Вид битрейта : Переменный
Битрейт : 128 Кбит/сек
Максимальный битрейт : 159 Кбит/сек
Каналы : 2 канала
Расположение каналов : Front: L R
Частота : 48,0 КГц
Метод сжатия : С потерями
Размер потока : 114 Мбайт (6%)
Заголовок : Dub
Язык : Russian
Дата кодирования : UTC 2012-12-01 12:44:30
Дата пометки : UTC 2012-12-01 12:45:07
Аудио #2
Идентификатор : 3
Формат : AAC
Формат/Информация : Advanced Audio Codec
Профиль формата : LC
Идентификатор кодека : 40
Продолжительность : 2 ч. 4 м.
Вид битрейта : Переменный
Битрейт : 128 Кбит/сек
Максимальный битрейт : 217 Кбит/сек
Каналы : 2 канала
Расположение каналов : Front: L R
Частота : 48,0 КГц
Метод сжатия : С потерями
Размер потока : 114 Мбайт (6%)
Заголовок : Glanz & Koroleva
Язык : Russian
Дата кодирования : UTC 2012-12-01 12:44:43
Дата пометки : UTC 2012-12-01 12:45:07
Аудио #3
Идентификатор : 4
Формат : AAC
Формат/Информация : Advanced Audio Codec
Профиль формата : LC
Идентификатор кодека : 40
Продолжительность : 2 ч. 4 м.
Вид битрейта : Переменный
Битрейт : 128 Кбит/сек
Максимальный битрейт : 213 Кбит/сек
Каналы : 2 канала
Расположение каналов : Front: L R
Частота : 48,0 КГц
Метод сжатия : С потерями
Размер потока : 114 Мбайт (6%)
Язык : English
Дата кодирования : UTC 2012-12-01 12:44:55
Дата пометки : UTC 2012-12-01 12:45:07
Текст #1
Идентификатор : 5
Формат : Timed text
Режим смешивания : sbtl
Идентификатор кодека : tx3g
Продолжительность : 2 ч. 0 м.
Вид битрейта : Переменный
Битрейт : 102 бит/сек
Размер потока : 89,4 Кбайт (0%)
Язык : Russian
Дата кодирования : UTC 2012-12-01 12:45:06
Дата пометки : UTC 2012-12-01 12:45:07
Текст #2
Идентификатор : 6
Формат : Timed text
Режим смешивания : sbtl
Идентификатор кодека : tx3g
Продолжительность : 2 ч. 0 м.
Вид битрейта : Переменный
Битрейт : 74 бит/сек
Размер потока : 65,5 Кбайт (0%)
Язык : English
Дата кодирования : UTC 2012-12-01 12:45:06
Дата пометки : UTC 2012-12-01 12:45:07

x264 log
Код:
Код:
x264 [info]: frame I:2432  Avg QP:16.38  size: 34483  PSNR Mean Y:47.04 U:58.20 V:59.24 Avg:48.22 Global:47.13
x264 [info]: frame P:176581 Avg QP:19.30  size:  9039  PSNR Mean Y:42.96 U:47.67 V:48.73 Avg:44.08 Global:43.86
x264 [info]: mb I  I16..4: 33.5%  0.0% 66.5%
x264 [info]: mb P  I16..4:  0.4%  0.0%  1.6%  P16..4: 46.8% 27.6% 12.5%  0.0%  0.0%    skip:11.0%
x264 [info]: coded y,uvDC,uvAC intra: 85.8% 78.9% 61.3% inter: 39.1% 32.9% 4.3%
x264 [info]: i16 v,h,dc,p: 46% 13% 11% 30%
x264 [info]: i4 v,h,dc,ddl,ddr,vr,hd,vl,hu: 11%  5%  4% 13% 16% 17% 12% 13%  9%
x264 [info]: i8c dc,h,v,p: 52% 14% 24% 10%
x264 [info]: ref P L0: 68.7% 31.3%
x264 [info]: SSIM Mean Y:0.9755636 (16.120db)
x264 [info]: PSNR Mean Y:43.017 U:47.814 V:48.875 Avg:44.135 Global:43.894 kb/s:1800.00


iTunes Meta Tags
Код:
Код:
Media Type: Movie
XID: Apple:vendor_id:2002-tt0289765
Content ID: 293196164
Copyright: Steamteam [RG Apple]
ScreenWriters: Тед Тэлли, Томас Харрис
Producers: Дино Де Лаурентис, Марта Де Лаурентис, Эндрю З. Дэвис
Director: Бретт Рэтнер
Cast: Энтони Хопкинс, Эдвард Нортон, Рэйф Файнс, Харви Кейтель, Эмили Уотсон, Мэри-Луиз Паркер, Филип Сеймур Хоффман, Энтони Хилд, Кен Люн, Фрэнки Фэйзон
Long Description: Действие этой ленты разворачивается до событий, описанных в «Молчании ягнят» и до появления Клариссы Старлинг. Мы знакомимся с человеком, поймавшим Ганнибала Лектора, — специальным агентом ФБР Уиллом Грэмом. После ареста Лектора, который едва не стоил Грэму жизни, Уилл уходит со службы в Бюро.Однако, появление нового жуткого серийного убийцы заставляет Грэма вернуться на службу. Этот безжалостный монстр, которого пресса уже окрестила «Зубной Феей», ночами вырезает целые семейства.
Description: Действие этой ленты разворачивается до событий, описанных в «Молчании ягнят» и до появления Клариссы Старлинг. Мы знакомимся с человеком, поймавшим Ганнибала Лектора, — специальным агентом ФБР Уиллом Грэмом. После ареста Лектора, который едва не стои
Release Date: 2002-10-04T07:00:00Z
Genre: Thriller
Artist: Бретт Рэтнер
Name: Красный Дракон

Скриншоты

Ганнибал: Восхождение [Unrated] / Hannibal Rising [Unrated]

Год выпуска: 2002
Страна: США, Великобритания
Жанр: США, Германия
Продолжительность: 02:04:26
Перевод : Профессиональный (полное дублирование)
Русские субтитры: есть
Режиссёр: Питер Веббер / Peter Webber
В ролях: Аарон Томас, Гаспар Ульель, Гун Ли, Хелена Лиа Тачовска, Ричард Лиф, Доминик Уэст, Рис Иванс, Мишель Вэйд, Ричард Брэйк, Мартин Хьюб
Описание: Первая глава жизни самого знаменитого и хитроумного маньяка всех времен… Ему было шесть, когда на его глазах жестоко убили его семью. В двадцать, бежав во Францию, а затем в США, он получил блестящее образование психиатра. Впереди его ждала жизнь, полная привилегий. Но жажда мести за убийство семьи только разгоралась в нем…
Качество: HDRip
Формат: *.m4v
Видео кодек: H.264
аудио кодек: ААС
Разрешение: [email protected] анаморф
Другие параметры видео: AVC at 1800 Кбит/сек, [email protected] (2.340) at 23.976 fps
Аудио 1: AAC at 128 Кбит/сек, 2 канала, 48,0 КГц (Русский дублированный)
Аудио 2: AAC at 128 Кбит/сек, 2 канала, 48,0 КГц (Русский профессиональный многоголосый, Киномания)
Аудио 3: AAC at 128 Кбит/сек, 2 канала, 48,0 КГц (Английский)
Вшитая обложка: есть
Доп. теги (режиссёр, актёры и т.д.): прописаны
Телешоу/видеоклип : не требуется
Главы: прописаны
Серия/сезон: не требуется
MediaInfo
Общее
Полное имя : E:\Hannibal Anthology\Hannibal Rising.m4v
Формат : MPEG-4
Идентификатор кодека : M4V
Размер файла : 2,00 Гбайт
Продолжительность : 2 ч. 10 м.
Режим общего битрейта : Переменный
Общий поток : 2189 Кбит/сек
Название фильма : Ганнибал: Восхождение
Исполнитель : Питер Веббер
Жанр : Thriller
Дата записи : UTC 2007-05-29 07:00:00
Дата кодирования : UTC 2012-11-28 20:05:07
Дата пометки : UTC 2012-11-28 20:09:13
Программа кодирования : MkvToMp4 [www.mkvtomp4.ru] version 0.222
Правообладатель : Steamteam [RG Apple]
Обложка : Yes
desc : Первая глава жизни самого знаменитого и хитроумного маньяка всех времен… Ему было шесть, когда на его глазах жестоко убили его семью. В двадцать, бежав во Францию, а затем в США, он получил блестящее образование психиатра. Впереди его ждала жизнь, по
ldes : Первая глава жизни самого знаменитого и хитроумного маньяка всех времен… Ему было шесть, когда на его глазах жестоко убили его семью. В двадцать, бежав во Францию, а затем в США, он получил блестящее образование психиатра. Впереди его ждала жизнь, полная привилегий. Но жажда мести за убийство семьи только разгоралась в нем…
hdvd : 0
stik : 9
cnID : 328825476
xid : Apple:vendor_id:2007-tt0367959
iTunEXTC : mpaa|R|400|
iTunMOVI : <?xml version="1.0" encoding="UTF-8"?> / <!DOCTYPE plist PUBLIC "-/Apple/DTD PLIST 1.0/EN" "http://www.apple.com/DTDs/PropertyList-1.0.dtd"> / <plist version="1.0"> / <dict> / <key>cast</key> / <array> / <dict> / <key>name</key> / <string>Аарон Томас</string> / </dict> / <dict> / <key>name</key> / <string>Гаспар Ульель</string> / </dict> / <dict> / <key>name</key> / <string>Гун Ли</string> / </dict> / <dict> / <key>name</key> / <string>Хелена Лиа Тачовска</string> / </dict> / <dict> / <key>name</key> / <string>Ричард Лиф</string> / </dict> / <dict> / <key>name</key> / <string>Доминик Уэст</string> / </dict> / <dict> / <key>name</key> / <string>Рис Иванс</string> / </dict> / <dict> / <key>name</key> / <string>Мишель Вэйд</string> / </dict> / <dict> / <key>name</key> / <string>Ричард Брэйк</string> / </dict> / <dict> / <key>name</key> / <string>Мартин Хьюб</string> / </dict> / </array> / <key>directors</key> / <array> / <dict> / <key>name</key> / <string>Питер Веббер</string> / </dict> / </array> / <key>producers</key> / <array> / <dict> / <key>name</key> / <string>Тарак Бен Аммар</string> / </dict> / <dict> / <key>name</key> / <string>Дино Де Лаурентис</string> / </dict> / <dict> / <key>name</key> / <string>Марта Де Лаурентис</string> / </dict> / </array> / <key>screenwriters</key> / <array> / <dict> / <key>name</key> / <string>Томас Харрис</string> / </dict> / </array> / </dict> / </plist>
Видео
Идентификатор : 1
Формат : AVC
Формат/Информация : Advanced Video Codec
Профиль формата : [email protected]
Параметр CABAC формата : Нет
Параметр ReFrames формата : 2 кадра
Идентификатор кодека : avc1
Идентификатор кодека/Информация : Advanced Video Coding
Продолжительность : 2 ч. 10 м.
Битрейт : 1800 Кбит/сек
Максимальный битрейт : 14,5 Мбит/сек
Ширина : 640 пикселей
Высота : 364 пикселя
Соотношение сторон : 2,35:1
Режим частоты кадров : Переменный
Частота кадров : 23,976 кадра/сек
Минимальная частота кадров : 23,810 кадра/сек
Максимальная частота кадров : 24,390 кадра/сек
Цветовое пространство : YUV
Субдискретизация насыщенности : 4:2:0
Битовая глубина : 8 бит
Тип развёртки : Прогрессивная
Бит/(Пиксели*Кадры) : 0.322
Размер потока : 1,64 Гбайт (82%)
Библиотека кодирования : x264 core 120
Настройки программы : cabac=0 / ref=2 / deblock=1:0:0 / analyse=0x1:0x111 / me=umh / subme=8 / psy=1 / psy_rd=1.00:0.00 / mixed_ref=1 / me_range=16 / chroma_me=1 / trellis=0 / 8x8dct=0 / cqm=0 / deadzone=21,11 / fast_pskip=1 / chroma_qp_offset=-2 / threads=6 / sliced_threads=0 / nr=0 / decimate=1 / interlaced=0 / bluray_compat=0 / constrained_intra=0 / bframes=0 / weightp=0 / keyint=240 / keyint_min=24 / scenecut=40 / intra_refresh=0 / rc_lookahead=40 / rc=2pass / mbtree=1 / bitrate=1800 / ratetol=1.0 / qcomp=0.60 / qpmin=3 / qpmax=69 / qpstep=4 / cplxblur=20.0 / qblur=0.5 / ip_ratio=1.40 / aq=1:1.00
Язык : English
Дата кодирования : UTC 2012-11-28 20:05:07
Дата пометки : UTC 2012-11-28 20:07:23
Основные цвета : BT.709
Характеристики трансфера : BT.709
Коэффициенты матрицы : BT.709
Аудио #1
Идентификатор : 2
Формат : AAC
Формат/Информация : Advanced Audio Codec
Профиль формата : LC
Идентификатор кодека : 40
Продолжительность : 2 ч. 10 м.
Вид битрейта : Переменный
Битрейт : 128 Кбит/сек
Максимальный битрейт : 264 Кбит/сек
Каналы : 2 канала
Расположение каналов : Front: L R
Частота : 48,0 КГц
Метод сжатия : С потерями
Размер потока : 119 Мбайт (6%)
Заголовок : Dub
Язык : Russian
Дата кодирования : UTC 2012-11-28 20:06:47
Дата пометки : UTC 2012-11-28 20:07:23
Аудио #2
Идентификатор : 3
Формат : AAC
Формат/Информация : Advanced Audio Codec
Профиль формата : LC
Идентификатор кодека : 40
Продолжительность : 2 ч. 10 м.
Вид битрейта : Переменный
Битрейт : 128 Кбит/сек
Максимальный битрейт : 163 Кбит/сек
Каналы : 2 канала
Расположение каналов : Front: L R
Частота : 48,0 КГц
Метод сжатия : С потерями
Размер потока : 120 Мбайт (6%)
Заголовок : MVO
Язык : Russian
Дата кодирования : UTC 2012-11-28 20:06:59
Дата пометки : UTC 2012-11-28 20:07:23
Аудио #3
Идентификатор : 4
Формат : AAC
Формат/Информация : Advanced Audio Codec
Профиль формата : LC
Идентификатор кодека : 40
Продолжительность : 2 ч. 10 м.
Вид битрейта : Переменный
Битрейт : 128 Кбит/сек
Максимальный битрейт : 266 Кбит/сек
Каналы : 2 канала
Расположение каналов : Front: L R
Частота : 48,0 КГц
Метод сжатия : С потерями
Размер потока : 119 Мбайт (6%)
Язык : English
Дата кодирования : UTC 2012-11-28 20:07:11
Дата пометки : UTC 2012-11-28 20:07:23
Текст #1
Идентификатор : 5
Формат : Timed text
Режим смешивания : sbtl
Идентификатор кодека : tx3g
Продолжительность : 2 ч. 4 м.
Вид битрейта : Переменный
Битрейт : 46 бит/сек
Размер потока : 41,9 Кбайт (0%)
Язык : Russian
Дата кодирования : UTC 2012-11-28 20:07:23
Дата пометки : UTC 2012-11-28 20:07:23
Текст #2
Идентификатор : 6
Формат : Timed text
Режим смешивания : sbtl
Идентификатор кодека : tx3g
Продолжительность : 2 ч. 2 м.
Вид битрейта : Переменный
Битрейт : 37 бит/сек
Размер потока : 33,6 Кбайт (0%)
Язык : English
Дата кодирования : UTC 2012-11-28 20:07:23
Дата пометки : UTC 2012-11-28 20:07:23

x264 log
Код:
Код:
x264 [info]: frame I:3157  Avg QP:14.71  size: 38906  PSNR Mean Y:48.01 U:53.38 V:53.37 Avg:49.13 Global:48.38
x264 [info]: frame P:184527 Avg QP:16.57  size:  8877  PSNR Mean Y:46.22 U:51.67 V:51.52 Avg:47.35 Global:46.57
x264 [info]: mb I  I16..4: 22.6%  0.0% 77.4%
x264 [info]: mb P  I16..4:  0.7%  0.0%  2.2%  P16..4: 41.2% 26.0% 10.6%  0.0%  0.0%    skip:19.3%
x264 [info]: coded y,uvDC,uvAC intra: 84.7% 67.9% 48.2% inter: 35.0% 15.7% 2.9%
x264 [info]: i16 v,h,dc,p: 45% 10% 14% 31%
x264 [info]: i4 v,h,dc,ddl,ddr,vr,hd,vl,hu: 11%  5%  6% 12% 16% 16% 12% 12%  9%
x264 [info]: i8c dc,h,v,p: 56% 14% 22%  8%
x264 [info]: ref P L0: 73.3% 26.7%
x264 [info]: SSIM Mean Y:0.9869578 (18.847db)
x264 [info]: PSNR Mean Y:46.251 U:51.695 V:51.547 Avg:47.379 Global:46.595 kb/s:1799.62


iTunes Meta Tags
Код:
Код:
Media Type: Movie
XID: Apple:vendor_id:2007-tt0367959
Content ID: 328825476
Copyright: Steamteam [RG Apple]
ScreenWriters: Томас Харрис
Producers: Тарак Бен Аммар, Дино Де Лаурентис, Марта Де Лаурентис
Director: Питер Веббер
Cast: Аарон Томас, Гаспар Ульель, Гун Ли, Хелена Лиа Тачовска, Ричард Лиф, Доминик Уэст, Рис Иванс, Мишель Вэйд, Ричард Брэйк, Мартин Хьюб
Long Description: Первая глава жизни самого знаменитого и хитроумного маньяка всех времен… Ему было шесть, когда на его глазах жестоко убили его семью. В двадцать, бежав во Францию, а затем в США, он получил блестящее образование психиатра. Впереди его ждала жизнь, полная привилегий. Но жажда мести за убийство семьи только разгоралась в нем…
Description: Первая глава жизни самого знаменитого и хитроумного маньяка всех времен… Ему было шесть, когда на его глазах жестоко убили его семью. В двадцать, бежав во Францию, а затем в США, он получил блестящее образование психиатра. Впереди его ждала жизнь, по
Release Date: 2007-05-29T07:00:00Z
Genre: Thriller
Artist: Питер Веббер
Name: Ганнибал: Восхождение

Скриншоты

О порядке просмотра фильмов
Раздача оформлена в соотвествии с хронологией выхода фильмов. Однако, смотреть их стоит в таком порядке:
1. Ганнибал. Восхождение
2. Красный Дракон
3. Молчание Ягнят
4. Ганнибал



Вернуться к началу
 Профиль Отправить личное сообщение  
 
   Похожие торренты   Автор   Торрент   Размер 
В этой теме нет новых непрочитанных сообщений. Рики и Флэш / Ricki and the Flash (Джонатан Демме) [2015, драма, комедия, музыка, HDRip | iTunes] Dub

Dracon

104 | 18

745.08 МБ

В этой теме нет новых непрочитанных сообщений. Хоббит: Коллекция / The Hobbit: Collection (Питер Джексон) [2012-2014 , Фэнтези, приключения, экранизация , BluRay 1080p] [DD5.1] [ Subs Rus,Ukr,ENG] [ Лицензия]

marya111

0 | 1

69.09 ГБ

В этой теме нет новых непрочитанных сообщений. Ганнибал / Hannibal (Сезон 3, Серии 1-13 из 13) (Гильермо Наварро, Майкл Раймер, Дэвид Слэйд) [2015, Детектив, криминал, драма , HDTVRip , WEB-DLRip-AVC 1080p] [DD5.1] [MVO] [Sony Sci Fi ,AlexFilm,NewStudio , BaibaKo , Jaskier + Subs Ru

Враг Нароода

4 | 6

38.56 ГБ

В этой теме нет новых непрочитанных сообщений. Джонатан Крик. Обитель нечестивых / Jonathan Creek. Daemons' Roost (Сэнди Джонсон / Sandy Johnson) [2016г., Великобритания, драма, криминал, детектив, HDTVRip 720p] avo

Alfredovich

649 | 324

1.62 ГБ

В этой теме нет новых непрочитанных сообщений. Готэм / Gotham (Сезон 2, Серия 1-13 из 22) (Дэнни Кэннон, Т.Дж. Скотт, Дермотт Даунс) [2015-2016 , триллер, драма, криминал , WEB-DLRip 1080p] [HamsterStudio , LostFilm , NewStudio , English] + [Subs Rus , Eng]

Враг Нароода

0 | 0

26.26 ГБ

В этой теме нет новых непрочитанных сообщений. Джонатан / Jonathan [драма, 2016] WEB-DLRip, Mvo

salma3

102 | 44

1.37 ГБ

В этой теме нет новых непрочитанных сообщений. Рики и Флэш / Ricki and the Flash (Джонатан Демме) [драма, комедия, 2015] WEB-DLRip, Dub [iTunes]

Dracon

40 | 0

1.46 ГБ


Начать новую тему Ответить на тему  [ 1 сообщение ] 




Для Мосгорсуда, Роскомнадзора и рекламодателей:: mosgorsud-torrent[собачка]yandex.ru
cron