Торрент файл
скачать торрент магнет ссылка Добавлен: 23 май 2013, 20:27
Размер: 744.73 МБ
Сидеров: 0
Личеров: 3
Автор

СообщениеДобавлено: 23 май 2013, 20:27 

Не в сети
Аватара пользователя
Дата регистрации:
05 мар 2013, 00:51
Спасибо: 1 / 0
Сообщения: 5



Исходный код / Source Code
Год выпуска: 2011
Страна: США
Жанр: фантастика, боевик, триллер, драма
Продолжительность фильма: 01:33:13
Режиссер:Дункан Джонс
Актёры: Джейк Джилленхол, Мишель Монахэн, Вера Фармига, Джеффри Райт, Майкл Арден, Кэс Анвар, Расселл Питерс, Брент Скэгфорд, Крэйг Томас, Гордон Мастен
Описание фильма: Солдат по имени Коултер мистическим образом оказывается в теле неизвестного мужчины, погибшего в железнодорожной катастрофе. Коултер вынужден переживать чужую смерть снова и снова до тех пор, пока не поймет, кто — зачинщик катастрофы.

Качество: BDRip
Формат: MP4
Видео кодек: XviD
Аудио кодек: AAC
Видео: XviD MPEG-4 Visual, 640 x 360 (1.778), 999 kbps, 23.976 fps
Аудио: AAC LC, 2 ch, 116 kbps, 48.0 KHz, Русский (дублированный)



Рецензии на кинопоиске


Код:
Общее
Полное имя                               : Исходный код. Source Code. США. 2011 [BDRip].mp4
Формат                                   : MPEG-4
Профиль формата                          : Base Media / Version 2
Идентификатор кодека                     : mp42
Размер файла                             : 745 Мбайт
Продолжительность                        : 1 ч. 33 м.
Режим общего битрейта                    : Переменный
Общий поток                              : 1117 Кбит/сек
Дата кодирования                         : UTC 2013-05-22 14:14:52
Дата пометки                             : UTC 2013-05-22 14:14:52
Программа кодирования                    : Yamb 2.1.0.0 [http://yamb.unite-video.com]

Видео
Идентификатор                            : 201
Формат                                   : MPEG-4 Visual
Профиль формата                          : [email protected]
Параметр BVOP формата                    : Нет
Параметр QPel формата                    : Нет
Параметр GMC формата                     : Без точки перехода
Параметр матрицы формата                 : Default (H.263)
Идентификатор кодека                     : 20
Продолжительность                        : 1 ч. 33 м.
Вид битрейта                             : Переменный
Битрейт                                  : 999 Кбит/сек
Максимальный битрейт                     : 11,4 Мбит/сек
Ширина                                   : 640 пикселей
Высота                                   : 360 пикселей
Соотношение сторон                       : 16:9
Режим частоты кадров                     : Постоянный
Частота кадров                           : 23,976 кадра/сек
Цветовое пространство                    : YUV
Субдискретизация насыщенности            : 4:2:0
Битовая глубина                          : 8 бит
Тип развёртки                            : Прогрессивная
Метод сжатия                             : С потерями
Бит/(Пиксели*Кадры)                      : 0.181
Размер потока                            : 666 Мбайт (89%)
Библиотека кодирования                   : XviD 64
Дата кодирования                         : UTC 2013-05-22 14:14:52
Дата пометки                             : UTC 2013-05-22 14:15:48

Аудио
Идентификатор                            : 101
Формат                                   : AAC
Формат/Информация                        : Advanced Audio Codec
Профиль формата                          : LC
Идентификатор кодека                     : 40
Продолжительность                        : 1 ч. 33 м.
Вид битрейта                             : Переменный
Битрейт                                  : 116 Кбит/сек
Максимальный битрейт                     : 170 Кбит/сек
Каналы                                   : 2 канала
Расположение каналов                     : Front: L R
Частота                                  : 48,0 КГц
Метод сжатия                             : С потерями
Размер потока                            : 77,1 Мбайт (10%)
Дата кодирования                         : UTC 2013-05-22 14:15:43
Дата пометки                             : UTC 2013-05-22 14:15:48




Вернуться к началу
 Профиль Отправить личное сообщение  
 
   Похожие торренты   Автор   Торрент   Размер 
В этой теме нет новых непрочитанных сообщений. Исходный код / Source Code [фантастика, боевик, триллер, 2011] BDRip-HEVC 2160p, Dub

salma3

0 | 1

22.16 ГБ

В этой теме нет новых непрочитанных сообщений. Исходный код / Source Code [фантастика, боевик, триллер, 2011] UHD BDRemux 2160p, Dub

salma3

1 | 22

50.86 ГБ

В этой теме нет новых непрочитанных сообщений. Джессика Джонс / Jessica Jones [S02] [фантастика, боевик, триллер, 2018] WEB-DL 1080p, Mvo [NewStudio]

salma3

0 | 1

108.02 ГБ

В этой теме нет новых непрочитанных сообщений. Джессика Джонс / Jessica Jones [S02] [фантастика, боевик, триллер, 2018] WEBRip, Mvo [LostFilm]

salma3

0 | 0

8.17 ГБ

В этой теме нет новых непрочитанных сообщений. Джессика Джонс / Jessica Jones [S02] [фантастика, боевик, триллер, 2018] WEB-DL 720p, Mvo [NewStudio]

salma3

0 | 0

56.33 ГБ

В этой теме нет новых непрочитанных сообщений. Джессика Джонс / Jessica Jones [S01] [фантастика, боевик, триллер, 2015] WEBRip 720p, Mvo [LostFilm]

salma3

0 | 1

32.96 ГБ

В этой теме нет новых непрочитанных сообщений. Джессика Джонс / Jessica Jones [S01] [фантастика, боевик, триллер, 2015] WEBRip 1080p, Mvo [LostFilm]

salma3

0 | 0

61.7 ГБ


Начать новую тему Ответить на тему  [ 1 сообщение ] 




Для Мосгорсуда, Роскомнадзора и рекламодателей:: mosgorsud-torrent[собачка]yandex.ru
cron