Торрент файл
скачать торрент магнет ссылка Добавлен: 12 мар 2013, 00:34
Размер: 854.66 МБ
Сидеров: 0
Личеров: 3
Автор

СообщениеДобавлено: 12 мар 2013, 00:35 

Не в сети
Аватара пользователя
Дата регистрации:
05 мар 2013, 00:51
Спасибо: 1 / 0
Сообщения: 5
Яблочное семя 2. Appleseed 2: Ekusu makina.



Год выпуска: 2007
Страна: Япония
Жанр: аниме, мультфильм, фантастика, боевик
Продолжительность: 1:43:48
Озвучивание: Профессиональное (многоголосое, закадровое)
Субтитры: нет
Особенность: для Nokia 5530

Описание: В 2133 году, после глобальной войны в которой погибло более половины населения земли, город Олимп стал маяком надежды в мире разрушений и страданий. Олимп — утопия, которой управляет суперкомпьютер Гайа, а важные политические посты занимают искусственно спроектированные люди-биороиды — которым неведомы эмоции злости или ненависти.

Дюнан Нант — молодая, но профессиональная военная, и Бриарюс — элитный солдат с телом киборга — напарники и возлюбленные, вместе охраняют покой идеального общества будущего.

Старых друзей подвергают нешуточному испытанию, когда напарником Дюнан назначают Терея — экспериментального биороида-воина, созданного на основе ДНК Бриарюса и как две капли воды похожего на его настоящее тело.

Качество: BDRip
Формат: MP4
Видео кодек: XviD
Аудио кодек: AAC
Видео: MPEG-4 Visual; 640x360 (16:9); 1011 Kbps; 23,976 fps
Аудио: AAC LC; 132 Kbps; VBR; 2 ch

Общее
Формат : MPEG-4
Профиль формата : Base Media / Version 2
Идентификатор кодека : mp42
Размер файла : 855 Мбайт
Продолжительность : 1 ч. 44 м.
Режим общего битрейта : Переменный
Общий поток : 1144 Кбит/сек
Дата кодирования : UTC 2013-03-10 18:41:17
Дата пометки : UTC 2013-03-10 18:41:17
Программа кодирования : Yamb 2.1.0.0 [http://yamb.unite-video.com]

Видео
Идентификатор : 201
Формат : MPEG-4 Visual
Профиль формата : [email protected]
Параметр BVOP формата : Нет
Параметр QPel формата : Нет
Параметр GMC формата : Без точки перехода
Параметр матрицы формата : Default (H.263)
Идентификатор кодека : 20
Продолжительность : 1 ч. 44 м.
Вид битрейта : Переменный
Битрейт : 1011 Кбит/сек
Максимальный битрейт : 8294 Кбит/сек
Ширина : 640 пикселей
Высота : 360 пикселей
Соотношение сторон : 16:9
Режим частоты кадров : Постоянный
Частота кадров : 23,976 кадра/сек
Цветовое пространство : YUV
Субдискретизация насыщенности : 4:2:0
Битовая глубина : 8 бит
Тип развёртки : Прогрессивная
Метод сжатия : С потерями
Бит/(Пиксели*Кадры) : 0.183
Размер потока : 756 Мбайт (88%)
Библиотека кодирования : XviD 64
Дата кодирования : UTC 2013-03-10 18:41:17
Дата пометки : UTC 2013-03-10 18:41:46

Аудио
Идентификатор : 101
Формат : AAC
Формат/Информация : Advanced Audio Codec
Профиль формата : LC
Идентификатор кодека : 40
Продолжительность : 1 ч. 44 м.
Вид битрейта : Переменный
Битрейт : 132 Кбит/сек
Максимальный битрейт : 190 Кбит/сек
Каналы : 2 канала
Расположение каналов : Front: L R
Частота : 48,0 КГц
Метод сжатия : С потерями
Размер потока : 97,1 Мбайт (11%)
Дата кодирования : UTC 2013-03-10 18:41:43
Дата пометки : UTC 2013-03-10 18:41:46





Вернуться к началу
 Профиль Отправить личное сообщение  
 
   Похожие торренты   Автор   Торрент   Размер 
В этой теме нет новых непрочитанных сообщений. Супергерои / Bling [мультфильм, 2016] BDRip-AVC, Dub [iTunes]

salma3

488 | 69

2.17 ГБ

В этой теме нет новых непрочитанных сообщений. Сказки старого пианино [01-13 из 13] ( мультфильм, короткометражка, биография, драма, 2007-2015) WEBRip, WEBRip 720p

marya111

7 | 1

2.73 ГБ

В этой теме нет новых непрочитанных сообщений. Супергерои / Bling (мультфильм, 2016) BDRip от ExKinoRay | iTunes

marya111

239 | 36

1.42 ГБ

В этой теме нет новых непрочитанных сообщений. Балто / Balto [мультфильм, драма, приключения, 1995] BDRip, Dub

salma3

44 | 9

1.37 ГБ

В этой теме нет новых непрочитанных сообщений. Супергерои / Bling ( Мультфильм, 2016) BDRip от MegaPeer | iTunes

marya111

94 | 7

1.42 ГБ

В этой теме нет новых непрочитанных сообщений. Супергерои / Bling [мультфильм, 2016] BDRip 720p, Dub [iTunes]

salma3

146 | 41

2.77 ГБ

В этой теме нет новых непрочитанных сообщений. Гарфилд / Garfield [мультфильм, фэнтези, семейный, 2004] BDRip-AVC, Dub+Sub

salma3

69 | 29

1.47 ГБ


Начать новую тему Ответить на тему  [ 1 сообщение ] 




Для Мосгорсуда, Роскомнадзора и рекламодателей:: mosgorsud-torrent[собачка]yandex.ru
cron