Торрент файл
скачать торрент магнет ссылка Добавлен: 05 апр 2012, 05:21
Размер: 738.03 МБ
Сидеров: 44
Личеров: 9
Автор

СообщениеДобавлено: 05 апр 2012, 05:21 

Не в сети
Аватара пользователя
Дата регистрации:
28 ноя 2010, 22:22
Спасибо: 722 / 5
Сообщения: 2030
[b]Пролетая над гнездом кукушки / One Flew Over the Cuckoo's Nest[/b]

Перевод: Профессиональный (полное дублирование), cубтитры: отсутствуют
Формат: DVDRip, MP4, Другой MPEG4, AAC
Страна: США
Режиссер: Милош Форман
Жанр: Драма
Продолжительность: 02:13:42
Год выпуска: 1975
В ролях: Джек Николсон, Луиза Флетчер, Брэд Дуриф, Уилл Сэмпсон, Дэнни ДеВито, Кристофер Ллойд, Скэтмэн Кроверс, Сидни Лэссик, Уильям Редфилд, Винсент Скьявелли.
Описание: Как насчет отдыха за государственный счет в небольшой психиатрической больнице? Именно это и сделал беспокойный и независимый МакМерфи, у которого в венах — огонь, а язык остер как бритва: симулировал сумасшествие и поселился «у психов». Немедленно его заразное чувство независимости начинает отравлять серую рутину больничных будней. Если по телевизору идет всемирный чемпионат по бейсболу, он не допустит, чтобы накаченные успокоительными таблетками пациенты слонялись вокруг. Это — война! На одной стороне — МакМерфи. На другой — санитарка Рэтчед, у нее спокойный голос, она — один из самых хладнокровных и беспощадных злодеев в истории кино. На кону судьба каждого пациента в палате.

Рейтинг Кинопоиск.RU: 8.597
Рейтинг IMDB: 8.9
Рейтинг MPAA: R
Видео: MPEG4 Video (H264) 480x256 23.98fps 640кбс
Аудио: AAC, 48000Hz stereo 128кбс
Доп.информация: Видео предназначено для просмотра на мобильных телефонах [3GP]








General
Complete name: C:\Мои раздачи\Пролетая над гнездом кукушки.mp4
Format: MPEG-4
Format profile: Base Media
Codec ID: isom
File size: 738 MiB
Duration: 2h 13mn
Overall bit rate: 772 Kbps
Encoded date: UTC 2009-05-10 23:03:35
Tagged date: UTC 2009-05-10 23:03:35

Video
ID: 1
Format: AVC
Format/Info: Advanced Video Codec
Format profile: [email protected]
Format settings, CABAC: No
Format settings, ReFrames: 6 frames
Codec ID: avc1
Codec ID/Info: Advanced Video Coding
Duration: 2h 13mn
Bit rate mode: Variable
Bit rate: 640 Kbps
Maximum bit rate: 2 561 Kbps
Width: 480 pixels
Height: 256 pixels
Display aspect ratio: 1.875
Frame rate mode: Constant
Frame rate: 23.976 fps
Color space: YUV
Chroma subsampling: 4:2:0
Bit depth: 8 bits
Scan type: Progressive
Bits/(Pixel*Frame): 0.217
Stream size: 612 MiB (83%)
Writing library: x264 core 60 r891kVAQ2mod.PsyRDO-generic-pf 2ca4593
Encoding settings: cabac=0 / ref=6 / deblock=1:0:0 / analyse=0x1:0x131 / me=umh / subme=1 / rdcmp=psy / brdo=0 / mixed_ref=1 / me_range=16 / chroma_me=1 / trellis=0 / 8x8dct=0 / cqm=0 / deadzone=21,11 / chroma_qp_offset=0 / threads=2 / nr=0 / decimate=1 / mbaff=0 / bframes=0 / keyint=250 / keyint_min=25 / scenecut=40(pre) / rc=2pass / bitrate=640 / ratetol=1.0 / rceq='blurCplx^(1-qComp)' / qcomp=0.60 / qpmin=10 / qpmax=51 / qpstep=4 / cplxblur=20.0 / qblur=0.5 / ip_ratio=1.40 / aq=3:3:0.60
Encoded date: UTC 2009-05-10 23:03:35
Tagged date: UTC 2009-05-10 23:04:25

Audio
ID: 2
Format: AAC
Format/Info: Advanced Audio Codec
Format version: Version 4
Format profile: LC
Format settings, SBR: No
Codec ID: 40
Duration: 2h 13mn
Bit rate mode: Variable
Bit rate: 129 Kbps
Maximum bit rate: 177 Kbps
Channel(s): 2 channels
Channel positions: Front: L R
Sampling rate: 48.0 KHz
Stream size: 123 MiB (17%)
Encoded date: UTC 2009-05-10 23:04:14
Tagged date: UTC 2009-05-10 23:04:25



* Роль Макмёрфи была изначально предложена Джеймсу Каану, затем её предлагали Марлону Брандо и Джину Хэкмену.
* Кирк Дуглас (игравший роль Макмёрфи в театре) довольно долго владел правами на фильм, пока его сын Майкл не занялся проектом. Кирк Дуглас хотел сняться сам, но был уже довольно стар для съёмок.
* Луиза Флетчер была назначена на роль всего за неделю до начала съёмок. Форман хотел видеть в этой роли Шелли Дювалль.
* За исключением сцен рыбалки, которые снимались последними, фильм был снят в строгой сценарной последовательности.
* Кен Кизи сказал, что никогда не будет смотреть этот фильм. Он был очень недоволен экранизацией его романа, в частности, тем, что в фильме отсутствует рассказчик, от лица которого ведётся повествование и которым в романе является «Вождь» Бродмен.
* Основой для романа стали воспоминания Кена Кизи о его работе в госпитале для ветеранов в Калифорнии.
* Это был второй фильм, которому удалось выиграть «Большой шлем» из 5 главных «Оскаров».
* Уильям Редфилд тяжело болел во время съёмок и умер через несколько месяцев.
* По неподтверждённым слухам, Джек Николсон сам прошёл электросудорожную терапию, пока снимался в фильме.
* Этот фильм стал дебютом Кристофера Ллойда, Брэда Дурифа и Дэнни ДеВито на киноэкране.
* В английском языке существует устойчивое выражение «гнездо кукушки» (cuckoo’s nest), переводящееся как больница для психически больных.
* Александр Морфов поставил спектакль «Затмение» по роману «Пролетая над гнездом кукушки» в театре «Ленком».[1]
* Именно этот фильм вдохновил группу Metallica на написание песни Welcome Home (Sanitarium), вошедшей в альбом Master Of Puppets, 1986.
* С фильмом Формана перекликается по сюжету и проблематике первый эпизод 6-го сезона телесериала «Доктор Хаус».
* В мультфильме «Futurama» (эпизод 3ACV11 «Insane in the Mainframe») также присутствует Сестра Рэтчетт, безжалостно издевающаяся над Фраем.
* В мультсериале «Симпсоны»(Сезон 4, эпизод 18 «So It's Come To This: A Simpsons Clip Show») почти в точности воспроизведена финальная сцена фильма.
* В одном из эпизоде мультсериала Царь горы над одним из персонажей издеваются, говоря, что он Джек Николсон
* Фолк - метал группа In Extremo сняла клип на песню Frei zu Sein («Быть Свободным») по мотивам этого фильма — схож не только сюжет, но даже текст песни соответствует мировоззрению главного героя фильма.
* Сюжет фильма обыгран в клипе Oasis "Sunday Morning Call".




Британская академия (1977 год)

Награда: Лучший фильм, Лучшая мужская роль (Джек Николсон), Лучшая женская роль (Луиза Флетчер), Лучшая мужская роль второго плана (Брэд Дуриф), Лучший режиссер (Милош Форман), Лучший монтаж
Номинация: Лучший сценарий, Лучшая работа оператора, Лучший саундтрек, Премия имени Энтони Эскуита за достижения в создании музыки к фильму

Оскар (1976 год)

Награда: Лучший фильм, Лучшая мужская роль (Джек Николсон), Лучшая женская роль (Луиза Флетчер), Лучший режиссер (Милош Форман), Лучший адаптированный сценарий
Номинация: Лучшая мужская роль второго плана (Брэд Дуриф), Лучшая работа оператора, Лучший монтаж, Лучший оригинальный саундтрек

Золотой глобус (1976 год)

Награда: Лучшая женская роль (драма) (Луиза Флетчер), Лучшая мужская роль (драма) (Джек Николсон), Лучший фильм (драма), Лучший режиссер (Милош Форман), Лучший сценарий, Лучший дебютант (Брэд Дуриф)

Поделиться:



Вернуться к началу
 Профиль Отправить личное сообщение  
 
   Похожие торренты   Автор   Торрент   Размер 
В этой теме нет новых непрочитанных сообщений. Без покоя / Тараканы в голове / Bube u glavi (Милош Радивоевич / Milos 'Misa' Radivojevic) [1970г., Югославия, экзистенциальная драма, DVDRip] VO + Sub

Alfredovich

4 | 2

1.36 ГБ

В этой теме нет новых непрочитанных сообщений. Аэропорт 1975 / Airport 1975 [боевик, триллер, драма, 1974] HDRip, Mvo

salma3

188 | 36

1.45 ГБ

В этой теме нет новых непрочитанных сообщений. Аэропорт 1975 / Airport 1975 [боевик, триллер, драма, 1974] BDRip 720p, Mvo+Sub

salma3

89 | 43

4.51 ГБ

В этой теме нет новых непрочитанных сообщений. Гнездо шершней / Hornets' Nest [боевик, драма, военный, 1970] BDRip 720p, Dvo [НТВ+]

salma3

13 | 8

7.05 ГБ

В этой теме нет новых непрочитанных сообщений. Дневник машиниста / Train Driver's Diary / Dnevnik masinovodje (Милош Радович / Milos Radovic) [2016г., Сербия, комедия, драма, TVRip] VO

Alfredovich

6 | 2

1.35 ГБ

В этой теме нет новых непрочитанных сообщений. Либера, любовь моя / Libera, amore mio! [драма, 1975] DVDRip, Dvo

salma3

0 | 0

698.91 МБ

В этой теме нет новых непрочитанных сообщений. Табор уходит в небо [мелодрама, драма, 1975] DVDRip

salma3

11 | 5

1.9 ГБ


Начать новую тему Ответить на тему  [ 1 сообщение ] 




Для Мосгорсуда, Роскомнадзора и рекламодателей:: mosgorsud-torrent[собачка]yandex.ru
cron