Торрент файл
скачать торрент магнет ссылка Добавлен: 26 янв 2012, 20:54
Размер: 1.28 ГБ
Сидеров: 6
Личеров: 5
Автор

СообщениеДобавлено: 26 янв 2012, 20:54 

Не в сети
Супермодератор
Аватара пользователя
Дата регистрации:
11 апр 2010, 18:10
Спасибо: 5996 / 7
Сообщения: 56684
Основы Финансовой Грамотности


Год выпуска: 2010
Жанр: Мультимедийный диск.
Разработчик: Окишев Игорь
Сайт разработчика:pro-mani.ru
Язык интерфейса:Русский
Платформа: Windows 98,Me,2000,XP,Vista,7
Системные требования:
Минимальные системные требования:
Pentium III 500 МГц и выше,
128 Mb ОЗУ,
SVGA видеоплата,
DVD-ROM,
MS Windows - совместимая звуковая карта,

Рекомендуемые системные требования:
MS Windows 2000/XP/Vista;
процессор Pentium IV, 1,5 ГГц,
512 Мб ОЗУ,
поддержка разрешения 1024x768 пикселей,
звуковая карта 16 бит,
DVD-ROM,
стереофонические колонки или наушники.
Описание: Мультимедийный диск обучающий основам финансовой грамотности.
General
Complete name : F:\Copy of Book\CD_Root\AutoPlay\Videos\Стоп Лосс Ноль.avi
Format : AVI
Format/Info : Audio Video Interleave
File size : 12.3 MiB
Duration : 2mn 54s
Overall bit rate : 589 Kbps

Video
Format : TechSmith
Codec ID : tscc
Codec ID/Info : TechSmith Screen Capture
Duration : 2mn 54s
Bit rate : 260 Kbps
Width : 1 440 pixels
Height : 900 pixels
Display aspect ratio : 1.600
Frame rate : 15.000 fps
Bits/(Pixel*Frame) : 0.013
Stream size : 5.41 MiB (44%)

Audio
ID : 1
Format : MPEG Audio
Format version : Version 1
Format profile : Layer 3
Codec ID : 55
Codec ID/Hint : MP3
Duration : 2mn 54s
Bit rate mode : Constant
Bit rate : 320 Kbps
Channel(s) : 2 channels
Sampling rate : 44.1 KHz
Stream size : 6.67 MiB (54%)
Alignment : Split accross interleaves
Interleave, duration : 998 ms (14.98 video frames)
Interleave, preload duration : 750 ms
Writing library : LAME3.97 (beta)





Поделиться:



Вернуться к началу
 Профиль Отправить личное сообщение  
 
   Похожие торренты   Автор   Торрент   Размер 
В этой теме нет новых непрочитанных сообщений. Сборник клипов - Hard Rock and Metal от ALEXnROCK Диск 2 [51 шт.] [Rock, Metal, 2017] DVDRip

salma3

16 | 6

4.26 ГБ

В этой теме нет новых непрочитанных сообщений. Sienna West (130 роликов) Самая сексуальная Брюнетка / обновление 16.11.2010 [2010 г., BIG TITS, ORGY, CUMSHOT, DVDRip]

salma3

11 | 4

44.92 ГБ

В этой теме нет новых непрочитанных сообщений. AutoData 3.38 eng [2010]

salma3

23 | 7

1.33 ГБ

В этой теме нет новых непрочитанных сообщений. Microsoft Office 2010 SP2 VL [x64]

rg.ruker

0 | 0

2.34 ГБ

В этой теме нет новых непрочитанных сообщений. РЭД / RED (2010) BDRemux 1080p | D, A, L1

marya111

27 | 11

39.05 ГБ

В этой теме нет новых непрочитанных сообщений. ELM327 USB - программы диагностики [2010]

salma3

17 | 5

178.68 МБ

В этой теме нет новых непрочитанных сообщений. 13 / 13 [триллер, драма, 2010] BDRip-AVC, Dub

salma3

0 | 0

748.76 МБ


Начать новую тему Ответить на тему  [ 1 сообщение ] 




Для Мосгорсуда, Роскомнадзора и рекламодателей:: mosgorsud-torrent[собачка]yandex.ru
cron