Торрент файл
скачать торрент магнет ссылка Добавлен: 26 янв 2012, 20:53
Размер: 3.16 ГБ
Сидеров: 24
Личеров: 9
Автор

СообщениеДобавлено: 26 янв 2012, 20:53 

Не в сети
Супермодератор
Аватара пользователя
Дата регистрации:
11 апр 2010, 18:10
Спасибо: 5995 / 7
Сообщения: 56685
Основы финансовой грамотности - Forex


Год выпуска: 2011
Жанр: Мультимедийный диск.
Разработчик: Окишев Игорь
Сайт разработчика:pro-mani.ru
Язык интерфейса:Русский
Платформа: Windows 98,Me,2000,XP,Vista,7
Системные требования:
Минимальные системные требования:
Pentium III 500 МГц и выше,
128 Mb ОЗУ,
SVGA видеоплата,
DVD-ROM,
MS Windows - совместимая звуковая карта,

Рекомендуемые системные требования:
MS Windows 2000/XP/Vista;
процессор Pentium IV, 1,5 ГГц,
512 Мб ОЗУ,
поддержка разрешения 1024x768 пикселей,
звуковая карта 16 бит,
DVD-ROM,
стереофонические колонки или наушники.
Описание: Мультимедийный диск обучающий основам финансовой грамотности. На данном диске акцент идёт на торговлю на Forex.
General
Complete name : F:\Copy of Book\CD_Root\AutoPlay\Videos\Стоп Лосс Ноль.avi
Format : AVI
Format/Info : Audio Video Interleave
File size : 12.3 MiB
Duration : 2mn 54s
Overall bit rate : 589 Kbps

Video
Format : TechSmith
Codec ID : tscc
Codec ID/Info : TechSmith Screen Capture
Duration : 2mn 54s
Bit rate : 260 Kbps
Width : 1 440 pixels
Height : 900 pixels
Display aspect ratio : 1.600
Frame rate : 15.000 fps
Bits/(Pixel*Frame) : 0.013
Stream size : 5.41 MiB (44%)

Audio
ID : 1
Format : MPEG Audio
Format version : Version 1
Format profile : Layer 3
Codec ID : 55
Codec ID/Hint : MP3
Duration : 2mn 54s
Bit rate mode : Constant
Bit rate : 320 Kbps
Channel(s) : 2 channels
Sampling rate : 44.1 KHz
Stream size : 6.67 MiB (54%)
Alignment : Split accross interleaves
Interleave, duration : 998 ms (14.98 video frames)
Interleave, preload duration : 750 ms
Writing library : LAME3.97 (beta)





Поделиться:



Вернуться к началу
 Профиль Отправить личное сообщение  
 
   Похожие торренты   Автор   Торрент   Размер 
В этой теме нет новых непрочитанных сообщений. FOREX Review №51 (июль 2015 / Россия) PDF

Абрам1

29 | 1

8.04 МБ

В этой теме нет новых непрочитанных сообщений. Сборник клипов - Hard Rock and Metal от ALEXnROCK Диск 2 [51 шт.] [Rock, Metal, 2017] DVDRip

salma3

16 | 6

4.26 ГБ

В этой теме нет новых непрочитанных сообщений. Carisha (2011) HD 720p

Dile-1

2 | 26

913.89 МБ

В этой теме нет новых непрочитанных сообщений. Alternativa [Adventure, 2011] [RePack ]

Sykre

13 | 0

1.32 ГБ

В этой теме нет новых непрочитанных сообщений. Прислуга / The Help [драма, 2011] BDRip, Mvo

salma3

172 | 32

2.91 ГБ

В этой теме нет новых непрочитанных сообщений. Romadoria [2.12] [Strategy, MMO, 2011] [Лицензия]

holokofi

1 | 1

556.08 МБ

В этой теме нет новых непрочитанных сообщений. Stephanie - Lady in Red (2011) CAMRip

salma3

35 | 2

267.34 МБ


Начать новую тему Ответить на тему  [ 1 сообщение ] 




Для Мосгорсуда, Роскомнадзора и рекламодателей:: mosgorsud-torrent[собачка]yandex.ru
cron