Торрент файл
скачать торрент магнет ссылка Добавлен: 26 янв 2012, 20:34
Размер: 1.26 ГБ
Сидеров: 1
Личеров: 13
Автор

СообщениеДобавлено: 26 янв 2012, 20:34 

Не в сети
Супермодератор
Аватара пользователя
Дата регистрации:
11 апр 2010, 18:10
Спасибо: 5995 / 7
Сообщения: 56685
Элитный Мир(Сезон 2) / The Leet World

Перевод: Профессиональный (многоголосый, закадровый), cубтитры: есть(русские)
Формат: HDRip, AVI, H.264, MP3
Страна: США
Режиссер: Smooth Few Films
Жанр: Машинима, Комедия, Боевик
Продолжительность: 14 х ~00:10:00
Год выпуска: 2008-2009
В ролях: Вестхаймер, Кортез, Игрок, Лирой, Чет, Эллис, Монтроуз, Ахмад и др.
Описание: «Элитный мир» - это самый громкий и успешный проект коллектива режиссёров машинимы Smooth Few Films, уже известного вам благодаря их шикарным короткометражкам «Облом», «Один день из жизни турелей», «Половое созревание» и «Стволторг». В этот раз вашему вниманию предлагается интригующее и уморительное реалити-шоу на движке Counter-Strike: Source. Опытный спецназовец Вестхаймер и некогда успешный террорист Кортез должны воспитать настоящих мастеров своего дела из шестерых идиотов и нубов.

Видео: 1280x720 (16:9), 25,000 fps, MPEG4 AVC (х264), [email protected] ~996 Кбит/сек, 0.043 bit/pixel
Аудио: 44,1 КГц, 2 канала, MP3, ~128 Кбит/сек avg

Доп. информация: Релиз:
StopGame
Перевод: Максим Солодилов







Общее
Полное имя: D:\The_Leet_World_Season_2[tfile.ru]\The Return.avi
Формат: AVI
Формат/Информация: Audio Video Interleave
Размер файла: 81,0 Мбайт
Продолжительность: 9 м. 59 с.
Общий поток: 1134 Кбит/сек
Библиотека кодирования: VirtualDub build 32706/release

Видео
Идентификатор: 0
Формат: AVC
Формат/Информация: Advanced Video Codec
Профиль формата: [email protected]
Параметр CABAC формата: Да
Параметр ReFrames формата: 5 кадров
Идентификатор кодека: H264
Продолжительность: 9 м. 59 с.
Битрейт: 996 Кбит/сек
Ширина: 1280 пикселей
Высота: 720 пикселей
Соотношение сторон: 16:9
Частота кадров: 25,000 кадров/сек
Цветовое пространство: YUV
Субдискретизация насыщенности: 4:2:0
Битовая глубина: 8 бит
Тип развёртки: Прогрессивная
Бит/(Пиксели*Кадры): 0.043
Размер потока: 71,1 Мбайт (88%)
Библиотека кодирования: x264 core 104 r1713bm c276662
Настройки программы: cabac=1 / ref=5 / deblock=1:1:1 / analyse=0x1:0x111 / me=hex / subme=7 / psy=1 / psy_rd=0.40:0.00 / mixed_ref=1 / me_range=16 / chroma_me=1 / trellis=1 / 8x8dct=0 / cqm=0 / deadzone=21,11 / fast_pskip=1 / chroma_qp_offset=-2 / threads=8 / sliced_threads=1 / slices=8 / nr=0 / decimate=1 / interlaced=0 / constrained_intra=0 / bframes=0 / weightp=2 / keyint=250 / keyint_min=25 / scenecut=40 / intra_refresh=0 / rc=cqp / mbtree=0 / qp=26 / ip_ratio=1.40 / aq=0

Аудио
Идентификатор: 1
Формат: MPEG Audio
Версия формата: Version 1
Профиль формата: Layer 3
Идентификатор кодека: 55
Идентификатор кодека/Подсказка: MP3
Продолжительность: 9 м. 59 с.
Вид битрейта: Постоянный
Битрейт: 128 Кбит/сек
Каналы: 2 канала
Частота: 44,1 КГц
Метод сжатия: С потерями
Размер потока: 9,14 Мбайт (11%)
Выравнивание: Разделение по промежуткам
Продолжительность промежутка: 40мс. (1,00 видеокадр)
Время предзагрузки промежутка: 500мс.

Поделиться:



Вернуться к началу
 Профиль Отправить личное сообщение  
 
   Похожие торренты   Автор   Торрент   Размер 
В этой теме нет новых непрочитанных сообщений. Элитный спецотряд / Cuerpo de Elite [комедия, 2016] HDRip, Avo

salma3

93 | 46

1.37 ГБ

В этой теме нет новых непрочитанных сообщений. Проигравший рыцарь / Ying han [боевик, комедия, 2008] HDRip, Mvo

salma3

0 | 0

1.46 ГБ

В этой теме нет новых непрочитанных сообщений. Пятая заповедь / The Fifth Commandment [боевик, триллер, драма, комедия, криминал, 2008] HDRip, Mvo

salma3

12 | 3

1.46 ГБ

В этой теме нет новых непрочитанных сообщений. Солдаты неудачи / Tropic Thunder [боевик, комедия, приключения, 2008] HDRip, Dub [Театральная версия]

salma3

11 | 2

1.45 ГБ

В этой теме нет новых непрочитанных сообщений. Прощай, мир / Goodbye World [драма, комедия, 2013] HDRip, Avo

salma3

45 | 23

1.3 ГБ

В этой теме нет новых непрочитанных сообщений. Обыкновенный мир / Ordinary World [драма, комедия, музыка, 2016] HDRip, Mvo

salma3

327 | 66

1.37 ГБ

В этой теме нет новых непрочитанных сообщений. Обыкновенный мир / Ordinary World [драма, комедия, музыка, 2016] HDRip, Mvo

salma3

27 | 13

699.69 МБ


Начать новую тему Ответить на тему  [ 1 сообщение ] 




Для Мосгорсуда, Роскомнадзора и рекламодателей:: mosgorsud-torrent[собачка]yandex.ru
cron