Торрент файл
скачать торрент магнет ссылка Добавлен: 07 янв 2012, 21:04
Размер: 1.12 ГБ
Сидеров: 100
Личеров: 9
Автор

СообщениеДобавлено: 07 янв 2012, 21:04 

Не в сети
Аватара пользователя
Дата регистрации:
19 окт 2011, 11:19
Возраст: 26
Спасибо: 548 / 1
Сообщения: 8830
Победить стресс!


Перевод: Не требуется, cубтитры: отсутствуют
Формат: DVD5, DVD Video, MPEG2, AC3
Страна: Россия
Режиссер: Вадим Шлахтер
Жанр: Видеоуроки
Продолжительность: 00:47:17
Год выпуска: 2011
В ролях: Вадимович Шлахтер
Описание: Автор данной программы и ведущий тренинга: Вадим Вадимович Шлахтер – известный бизнес-тренер, а также тренер личностного роста, бизнес-консультант. Один из лучших ведущих психологов-практиков Российской Федерации с профессиональным опытом более 16 лет.
Здесь представлены уроки Вадима Шлахтера по преодолению стресса.

Видео: 720х576 (PAL 4:3), 25 fps, MPEG-2, ~3121 kbps avg, 0.314 bit/pixel
Аудио: 48 kHz, AC-3 , 2 ch, 192.00 kbps avg

Доп. информация:
Содержание:
1. Стресс
2. Стресс-фактор
3. Психотравма
4. Мужской урок
5. Мужские болезни
6. Секретный урок


Общее
Формат: MPEG-PS
Общий поток: 3380 Кбит/сек

Видео
Идентификатор: 224 (0xE0)
Формат: MPEG Video
Версия формата: Version 2
Профиль формата: [email protected]
Параметр BVOP формата: Да
Параметр матрицы формата: По умолчанию
Параметры GOP формата: M=3, N=12
Вид битрейта: Переменный
Битрейт: 3121 Кбит/сек
Номинальный битрейт: 9008 Кбит/сек
Ширина: 720 пикс.
Высота: 576 пикс.
Соотношение сторон: 4:3
Частота кадров: 24,000 кадр/сек
Стандарт вещания: PAL
Цветовое пространство: YUV
Подвыборка цветности: 4:2:0
Битовая глубина: 8 бит
Тип развёртки: Прогрессивная
Порядок развёртки: 2:2:2:2:2:2:2:2:2:2:2:3 Pulldown
Метод сжатия: С потерями
Бит/(Пиксели*Кадры): 0.314
Размер потока: 945 Мбайт (92%)

Аудио
Идентификатор: 128 (0x80)
Формат: AC-3
Формат/Информация: Audio Coding 3
Расширение режима: CM (complete main)
Вид битрейта: Постоянный
Битрейт: 192 Кбит/сек
Канал(ы): 2 канала(ов)
Расположение каналов: Front: L R
Частота: 48,0 КГц
Битовая глубина: 16 бит
Метод сжатия: С потерями
Размер потока: 58,1 Мбайт (6%)





Поделиться:



Вернуться к началу
 Профиль Отправить личное сообщение  
 
   Похожие торренты   Автор   Торрент   Размер 
В этой теме нет новых непрочитанных сообщений. Победить или умереть / Do or Die [Боевик, 1991] DVDRip, Mvo

salma3

162 | 29

1.47 ГБ

В этой теме нет новых непрочитанных сообщений. Провидица (Джуна) [01-08 из 08] (Вадим Островский) [Мистика, биография, детектив, драма, 2015] HDTVRip

Dracon

283 | 80

5.71 ГБ

В этой теме нет новых непрочитанных сообщений. Провидица (Джуна) [01-08 из 08] (Вадим Островский) [Мистика, биография, детектив, драма, 2015] HDTV 1080i

Dracon

56 | 22

23.95 ГБ

В этой теме нет новых непрочитанных сообщений. Внутреннее расследование [серии 1-12 из 16] (Вадим Саетгалиев) [Боевик, детектив, криминальный фильм, 2015] SatRip

Dracon

0 | 0

6.45 ГБ

В этой теме нет новых непрочитанных сообщений. Из 13 в 30 / 13 Going on 30 [Комедия, мелодрама, 2004] DVD5, Mvo

salma3

7 | 0

4.33 ГБ

В этой теме нет новых непрочитанных сообщений. Шантаж / BlackMale [триллер, 2000] DVD5, Mvo

salma3

41 | 8

3.7 ГБ

В этой теме нет новых непрочитанных сообщений. Бармен ( комедия, фэнтези, 2015) DVD5

marya111

0 | 4

4.37 ГБ


Начать новую тему Ответить на тему  [ 1 сообщение ] 




Для Мосгорсуда, Роскомнадзора и рекламодателей:: mosgorsud-torrent[собачка]yandex.ru
cron