Торрент файл
скачать торрент магнет ссылка Добавлен: 07 янв 2012, 21:17
Размер: 2.4 ГБ
Сидеров: 37
Личеров: 9
Автор

СообщениеДобавлено: 07 янв 2012, 21:17 

Не в сети
Аватара пользователя
Дата регистрации:
19 окт 2011, 11:19
Возраст: 26
Спасибо: 548 / 1
Сообщения: 8830
Секреты красивой и здоровой кожи: Не дайте морщинам и шанса, или как стать моложе


Перевод: Не требуется, cубтитры: отсутствуют
Формат: DVD5, DVD Video, MPEG2, AC3
Страна: Россия
Режиссер: Игорь Пелинский
Жанр: красота, здоровье, косметология, массаж
Продолжительность: 00:53:00
Год выпуска: 2009
В ролях: Анастасия Семко

Описание: Все женщины, в любом возрасте, желают выглядеть молодо и привлекательно! Но… Возраст дает о себе знать... Морщины... Рано или поздно, они все-таки появляются на лице каждой представительницы прекрасного пола, предательски выдавая возраст... ;(

Первые морщинки появляются уже в 25 – 30 лет (а, иногда, и раньше!), и с каждым годом они становятся все глубже и заметнее, меняя наше лицо не в лучшую сторону… Этот процесс, естественно, совсем не радует нас, женщин. Конечно же, можно рассчитывать на чудеса пластической хирургии, хотя такую проблему можно решить и безоперационным путем.


Видео: 720x576 (PAL 16:9),25,000 fps,MPEG 2, ~5587kbps avg,0.539bit/pixel
Аудио: 48.0 kHz, AC3, (Front: L R) , 2 ch ~ 192 Kbps avg

Доп. информация: Видеофильм «Не дайте морщинам и шанса, или Как стать моложе» содержит массу полезных, интересных советов по уходу за собой в домашних условиях!


Общее
Полное имя: E:\Не дайте морщинам ни шанса!\VIDEO_TS\VTS_02_1.VOB
Формат: MPEG-PS
Размер файла: 1024 Мбайт
Продолжительность: 24 м.
Общий поток: 5897 Кбит/сек

Видео
Идентификатор: 224 (0xE0)
Формат: MPEG Video
Версия формата: Version 2
Профиль формата: [email protected]
Параметр BVOP формата: Да
Параметр матрицы формата: По умолчанию
Параметры GOP формата: M=3, N=15
Продолжительность: 24 м.
Вид битрейта: Переменный
Битрейт: 5587 Кбит/сек
Номинальный битрейт: 8000 Кбит/сек
Ширина: 720 пикс.
Высота: 576 пикс.
Соотношение сторон: 16:9
Частота кадров: 25,000 кадр/сек
Стандарт вещания: PAL
Цветовое пространство: YUV
Подвыборка цветности: 4:2:0
Битовая глубина: 8 бит
Тип развёртки: Чересстрочная
Порядок развёртки: Верхнее поле первое
Метод сжатия: С потерями
Бит/(Пиксели*Кадры): 0.539
Размер потока: 970 Мбайт (95%)

Аудио
Идентификатор: 128 (0x80)
Формат: AC-3
Формат/Информация: Audio Coding 3
Расширение режима: CM (complete main)
Продолжительность: 24 м.
Вид битрейта: Постоянный
Битрейт: 192 Кбит/сек
Канал(ы): 2 канала(ов)
Расположение каналов: Front: L R
Частота: 48,0 КГц
Битовая глубина: 16 бит
Метод сжатия: С потерями
Размер потока: 33,3 Мбайт (3%)

[/spoiler]



[/spoiler]
Превью - увеличение по клику:





[/spoiler]

* как проводить очищение и тонизацию кожи лица,
* какие пилинги и компрессы можно приготовить в домашних условиях,
* как бороться с отечностью лица,
* что способствует старению кожи,
* какой интенсивный антивозрастной уход необходим, чтобы уменьшить количество морщин на лице и шее, а также предотвратить их раннее появление,
* какой массаж поможет избавиться от морщин,
* каким рекомендациям нужно следовать, чтобы надолго сохранить молодость и красоту лица!!![/spoiler]


Поделиться:



Вернуться к началу
 Профиль Отправить личное сообщение  
 
   Похожие торренты   Автор   Торрент   Размер 
В этой теме нет новых непрочитанных сообщений. Моложе себя и не почувствуешь / As Young as You Feel [Комедия, 1951] DVDRip, Mvo

salma3

87 | 38

1.36 ГБ

В этой теме нет новых непрочитанных сообщений. Без кожи / Skinned Deep [Ужасы, трэш, комедия, 2004] DVDRip, Dvo

salma3

55 | 11

1.46 ГБ

В этой теме нет новых непрочитанных сообщений. Дайте Два - Особенная уличная магия [2015, Alternative Rock, Rapcore, MP3]

salma3

0 | 0

58.37 МБ

В этой теме нет новых непрочитанных сообщений. Массаж порно звезд 16 / Pornstar Spa 16 (2016) WEBRip

Dievas

17 | 4

2.04 ГБ

В этой теме нет новых непрочитанных сообщений. Чешский массаж 260 / Czech Massage 260 (2016) HD 1080p

salma3

18 | 2

440.83 МБ

В этой теме нет новых непрочитанных сообщений. Подростковый массаж / Teen Massage (2017) WEBRip

salma3

172 | 31

1.04 ГБ

В этой теме нет новых непрочитанных сообщений. Секс с очень красивой девушкой [2016 г., Amateur, All Sex, Public, CamRip]

Dievas

39 | 1

156.2 МБ


Начать новую тему Ответить на тему  [ 1 сообщение ] 




Для Мосгорсуда, Роскомнадзора и рекламодателей:: mosgorsud-torrent[собачка]yandex.ru
cron