Торрент файл
скачать торрент магнет ссылка Добавлен: 07 янв 2012, 21:17
Размер: 1.69 ГБ
Сидеров: 23
Личеров: 8
Автор

СообщениеДобавлено: 07 янв 2012, 21:17 

Не в сети
Аватара пользователя
Дата регистрации:
19 окт 2011, 11:19
Возраст: 26
Спасибо: 548 / 1
Сообщения: 8830
Креативные стрижки для детей: мальчикам и девочкам


Перевод: Не требуется, cубтитры: отсутствуют
Формат: DVD5, DVD Video, MPEG2, MP2
Страна: Россия
Жанр: Парикмахерское искусство, обучающее видео
Продолжительность: 00:50:00
Год выпуска: 2008

Описание: 13 Детских креативных стрижек и одна с узором на голове паутинка. Показаны 7 стрижек для мальчиков и 6 для девочек. Каждая стрижка вместе с укладкой.

Видео: 720x576 (PAL 4:3),25,000 fps,MPEG 2, ~6167kbps avg,0.595bit/pixel
Аудио: 48.0 kHz, MPEG Layer 2 , 2 ch ~ 224 Kbps avg


Общее
Полное имя: E:\видео детские стрижки\VTS_01_1.VOB
Формат: MPEG-PS
Размер файла: 1024 Мбайт
Продолжительность: 21 м.
Общий поток: 6521 Кбит/сек

Видео
Идентификатор: 224 (0xE0)
Формат: MPEG Video
Версия формата: Version 2
Профиль формата: [email protected]
Параметр BVOP формата: Да
Параметр матрицы формата: По умолчанию
Продолжительность: 21 м.
Вид битрейта: Переменный
Битрейт: 6167 Кбит/сек
Номинальный битрейт: 8500 Кбит/сек
Ширина: 720 пикс.
Высота: 576 пикс.
Соотношение сторон: 4:3
Частота кадров: 25,000 кадр/сек
Стандарт вещания: PAL
Цветовое пространство: YUV
Подвыборка цветности: 4:2:0
Битовая глубина: 8 бит
Тип развёртки: Чересстрочная
Порядок развёртки: Верхнее поле первое
Метод сжатия: С потерями
Бит/(Пиксели*Кадры): 0.595
Размер потока: 968 Мбайт (95%)

Аудио
Идентификатор: 192 (0xC0)
Формат: MPEG Audio
Версия формата: Version 1
Профиль формата: Layer 2
Режим: Joint stereo
Расширение режима: Intensity Stereo + MS Stereo
Продолжительность: 21 м.
Вид битрейта: Постоянный
Битрейт: 224 Кбит/сек
Канал(ы): 2 канала(ов)
Частота: 48,0 КГц
Метод сжатия: С потерями
Размер потока: 35,2 Мбайт (3%)

Меню







Поделиться:



Вернуться к началу
 Профиль Отправить личное сообщение  
 
   Похожие торренты   Автор   Торрент   Размер 
В этой теме нет новых непрочитанных сообщений. Мальчикам это нравится / The House Bunny [мелодрама, комедия, 2008] Blu-ray 1080p, Dub+Sub

salma3

29 | 55

36.82 ГБ

В этой теме нет новых непрочитанных сообщений. Как запомнить всю колоду из 52 карт (Станислав Матвеев) [2015, Обучающее видео, SATRip]

st.matvv

70 | 12

1.4 ГБ

В этой теме нет новых непрочитанных сообщений. Хатха Йога. Освоение прогибов и Йоганидрасаны. Последовательность среднего уровня [2015, обучающее видео, йога, DVDRip]

a.lihanov

28 | 1

1.33 ГБ

В этой теме нет новых непрочитанных сообщений. Дом странных детей Мисс Перегрин / Miss Peregrine's Home for Peculiar Children [Фэнтези, драма, приключения, семейный, 2016] DVD5, Dub

salma3

80 | 35

4.37 ГБ

В этой теме нет новых непрочитанных сообщений. Сестры по крови / Solo quiero caminar [Триллер, драма, криминал, 2008] BDRip 1080р, Mvo+Sub [Союз-Видео]

salma3

29 | 2

9.31 ГБ

В этой теме нет новых непрочитанных сообщений. Free Studio 6.5.3.713 [2015, Видео, аудио конвертер; запись, копирование дисков; редактор видео, аудио файлов]

salma3

43 | 3

61.91 МБ

В этой теме нет новых непрочитанных сообщений. Детей нет / Sin hijos [мелодрама, комедия, 2015] HDTVRip, Mvo

salma3

102 | 23

1.46 ГБ


Начать новую тему Ответить на тему  [ 1 сообщение ] 




Для Мосгорсуда, Роскомнадзора и рекламодателей:: mosgorsud-torrent[собачка]yandex.ru
cron