Торрент файл
скачать торрент магнет ссылка Добавлен: 07 янв 2012, 21:34
Размер: 1.8 ГБ
Сидеров: 20
Личеров: 12
Автор

СообщениеДобавлено: 07 янв 2012, 21:34 

Не в сети
Аватара пользователя
Дата регистрации:
19 окт 2011, 11:19
Возраст: 26
Спасибо: 548 / 1
Сообщения: 8830
Любимые блюда из творога: Секреты приготовления вкуснятины!


Перевод: Не требуется, cубтитры: отсутствуют
Формат: DVD5, DVD Video, MPEG2, AC3
Страна: Россия
Режиссер: Игорь Пелинский
Жанр: Кулинария
Продолжительность: 00:39:43
Год выпуска: 2010
В ролях: Алексей Дыма

Описание: Еда - это не только жизненная необходимость, витамины и калории, это удовольствие и время общения. Во время еды мы расслабляемся, мысли успокаиваются, и мы заново познаем, что жизнь - отличная штука! Тогда, когда в ней есть место простой, полезной, прекрасной и очень вкусной пище. Уже сами названия звучат удивительно вкусно!
В нашем фильме Алексей Дыма - автор нескольких книг по кулинарии, великолепный мастер, влюбленный в свое дело - покажет вам, как готовить эти невероятно аппетитные и полезные блюда. Кстати, наш шеф-повар научит вас готовить домашний творог по классической технологии, которая веками остается практически неизменной! Ещё Гиппократ говорил, что пища должна быть лекарством. Регулярное включение творога в рацион упорядочивает обмен веществ, а его минеральные вещества незаменимы для укрепления костей и улучшения работы нервной системы. В нем содержится множество белков, солей кальция и фосфора, и веществ, способствующих сжиганию жира. Если вы хотите похудеть с пользой для здоровья - переходите на творог! Разнообразить стол бывает не так просто, в голове прочно "засели" знакомые и постоянно повторяемые рецепты. Но иногда вам хочется попробовать что-то новое?!

В нашем фильме речь пойдет о твороге - уникальном источнике кальция, нежном, очень вкусном и ценном продукте, незаменимом для приготовления многих первых, вторых блюд, десертов:
- салат из творога, томата, изюма, винограда и перца;
- творог со шпинатом;
- запеканка из творога;
- закуска из салями с творогом;
- творожный шербет с орехами;
- кабачки с творогом;
- творожные шарики с орехами.


Видео: 720х576 25, 000fps, MPEG Video (PAL 16:9),5986kbps, 0.577bit/pixel
Аудио: 48.0 kHz, AC3, (Front: L R) , 2 ch ~ 192 Kbps avg


Общее
Полное имя: E:\Ljubimye.bljuda.iz.tvoroga.2010.DVD-5\VIDEO_TS\VTS_08_1.VOB
Формат: MPEG-PS
Размер файла: 1024 Мбайт
Продолжительность: 22 м.
Общий поток: 6303 Кбит/сек

Видео
Идентификатор: 224 (0xE0)
Формат: MPEG Video
Версия формата: Version 2
Профиль формата: [email protected]
Параметр BVOP формата: Да
Параметр матрицы формата: По умолчанию
Продолжительность: 22 м.
Вид битрейта: Переменный
Битрейт: 5986 Кбит/сек
Номинальный битрейт: 8000 Кбит/сек
Ширина: 720 пикс.
Высота: 576 пикс.
Соотношение сторон: 16:9
Частота кадров: 25,000 кадр/сек
Стандарт вещания: PAL
Цветовое пространство: YUV
Подвыборка цветности: 4:2:0
Битовая глубина: 8 бит
Тип развёртки: Чересстрочная
Порядок развёртки: Верхнее поле первое
Метод сжатия: С потерями
Бит/(Пиксели*Кадры): 0.577
Размер потока: 972 Мбайт (95%)

Аудио
Идентификатор: 128 (0x80)
Формат: AC-3
Формат/Информация: Audio Coding 3
Расширение режима: CM (complete main)
Продолжительность: 22 м.
Вид битрейта: Постоянный
Битрейт: 192 Кбит/сек
Канал(ы): 2 канала(ов)
Расположение каналов: Front: L R
Частота: 48,0 КГц
Битовая глубина: 16 бит
Метод сжатия: С потерями
Размер потока: 31,2 Мбайт (3%)

Меню








[/spoiler]
Поделиться:



Вернуться к началу
 Профиль Отправить личное сообщение  
 
   Похожие торренты   Автор   Торрент   Размер 
В этой теме нет новых непрочитанных сообщений. Пиво, вино и сидр в домашних условиях. Секреты приготовления (Кевин Форбс) [2013, Кулинария, алкогольные напитки, PDF, eBook (изначально компьютерное)]

salma3

114 | 5

10.84 МБ

В этой теме нет новых непрочитанных сообщений. ФСБ, или Фирменные секреты бабушек. Рецепты, любимые с детства (Лазерсон И. И., Спичка М. А.) [2016, Кулинария, PDF, eBook (изначально компьютерное)]

salma3

40 | 4

12.04 МБ

В этой теме нет новых непрочитанных сообщений. Секреты домашнего копчения (Валерий Бестужев (сост.)) [2016, Кулинария, PDF, FB2, eBook (изначально компьютерное)]

salma3

71 | 10

6.24 МБ

В этой теме нет новых непрочитанных сообщений. Все о тесте. Секреты домашней выпечки (Александр Селезнев) [2011, Кулинария, PDF, eBook (изначально компьютерное)]

salma3

44 | 3

28.09 МБ

В этой теме нет новых непрочитанных сообщений. КГБ, или Как Готовили Бабушки. Секреты фирменных блюд, рецепты праздничные и повседневные (Лазерсон И. И., Спичка М. А.) [2016, Кулинария, PDF, eBook (изначально компьютерное)]

salma3

37 | 3

12.93 МБ

В этой теме нет новых непрочитанных сообщений. Кулинария. Лучший повар Америки / MasterChef [S06] [Реалити-шоу, познавательный, кулинария, 2015] HDTVRip, Avo [ViruseProject]

salma3

4 | 3

10.21 ГБ

В этой теме нет новых непрочитанных сообщений. Любимые / The Loved Ones [ужасы, триллер, 2009] BDRip, Mvo

salma3

38 | 6

1.46 ГБ


Начать новую тему Ответить на тему  [ 1 сообщение ] 




Для Мосгорсуда, Роскомнадзора и рекламодателей:: mosgorsud-torrent[собачка]yandex.ru
cron