Торрент файл
скачать торрент магнет ссылка Добавлен: 13 мар 2012, 01:34
Размер: 314.69 МБ
Сидеров: 25
Личеров: 4
Автор

СообщениеДобавлено: 13 мар 2012, 01:34 

Не в сети
Супермодератор
Аватара пользователя
Дата регистрации:
22 май 2010, 11:03
Возраст: 33
Спасибо: 7741 / 13
Сообщения: 49846
Век эгоизма. Часть 2 – Конструирование согласия / The Century of the Self. Part 2 - The Engineering of Consent


Перевод: Профессиональный (одноголосый), cубтитры: отсутствуют
Формат: TVRip, AVI, DivX, MP3
Страна: Великобритания
Режиссер: Адам Кёртис
Жанр: документальный
Продолжительность: 00:58:52
Год выпуска: 2002
В ролях: Вернер Эрхард, Мартин С. Бергманн, Тони Блэр, Билл Клинтон, Адам Кертис, Роберт Рич, Вильгельм Райх

Описание: Это – история о том, как идеи Зигмунда Фрейда о бессознательном были использованы элитой в послевоенной Америке, чтобы проводить эксперименты над массами людей и управлять ими. Политики и их советники пришли к убеждению, что Фрейд был прав, предполагая, что глубоко внутри каждого человека скрыты опасные иррациональные желания и страхи. Они были убеждены, что именно высвобождение этих инстинктов привело к варварству в
нацистской Германии.
Чтобы никогда не допустить повторения подобного, они начали поиски методов, позволяющих контролировать этого врага, скрытого в недрах человеческого сознания. В центре нашей истории находятся дочь Зигмунда Фрейда, Анна, и его племянник Эдвард Бернейс, который изобрел профессию пиарщика. Их идеи были использованы американским правительством, крупным бизнесом и ЦРУ, чтобы разработать приемы контроля и управления сознанием людей в Америке.
Стоящие у власти верили, что единственным методом, который мог бы заставить демократию работать и привести к стабильному обществу, было подавление дикого варварства, которое притаилось почти за самым фасадом нормальной американской жизни.


Видео: 640x480 (1.33:1), 29.970 fps, DivX Codec 6.8.5/6.9.1 ~655 kbps avg, 0.07 bit/pixel
Аудио: 48 kHz, MPEG Layer 3, 1 ch, ~64.00 kbps avg

Format: AVI
Format/Info: Audio Video Interleave
File size: 315 MiB
Duration: 58mn 52s
Overall bit rate: 747 Kbps
Writing application: VirtualDubMod 1.5.10.2 (build 2542/release)
Writing library: VirtualDubMod build 2542/release

Video
ID: 0
Format: MPEG-4 Visual
Format settings, BVOP: 3
Format settings, QPel: No
Format settings, GMC: No warppoints
Format settings, Matrix: Default (H.263)
Muxing mode: Packed bitstream
Codec ID: DX50
Codec ID/Hint: DivX 5
Duration: 58mn 52s
Bit rate: 672 Kbps
Width: 640 pixels
Height: 480 pixels
Display aspect ratio: 4:3
Frame rate: 29.970 fps
Color space: YUV
Chroma subsampling: 4:2:0
Bit depth: 8 bits
Scan type: Progressive
Compression mode: Lossy
Bits/(Pixel*Frame): 0.073
Stream size: 283 MiB (90%)
Writing library: DivX 6.8.5 (UTC 2009-08-20)

Audio
ID: 1
Format: MPEG Audio
Format version: Version 1
Format profile: Layer 3
Codec ID: 55
Codec ID/Hint: MP3
Duration: 58mn 51s
Bit rate mode: Constant
Bit rate: 64.0 Kbps
Channel(s): 1 channel
Sampling rate: 48.0 KHz
Compression mode: Lossy
Stream size: 26.9 MiB (9%)
Alignment: Split accross interleaves
Interleave, duration: 33 ms (1.00 video frame)
Interleave, preload duration: 500 ms











Поделиться:



Вернуться к началу
 Профиль Отправить личное сообщение  
 
   Похожие торренты   Автор   Торрент   Размер 
В этой теме нет новых непрочитанных сообщений. НЛО над Европой. Неизвестные истории. Часть 1 / National Geographic. UFO Europe. Untold Stories. Part 1 [документальный, познавательный, 2012] HDTVRip, Avo

salma3

12 | 2

435.66 МБ

В этой теме нет новых непрочитанных сообщений. Эсминец 21 века / 21st Century Warship [2009, документальный, военная техника, флот, WEBRip] VO

salma3

0 | 1

191.97 МБ

В этой теме нет новых непрочитанных сообщений. Восхождение пехотинца. Часть II / Rise of the Footsoldier Part II [криминал, 2015] BDRip, AVO

salma3

199 | 43

1.46 ГБ

В этой теме нет новых непрочитанных сообщений. Паразит: Часть 2 / Kiseijû: Part 2 (Такаси Ямадзаки) [Фантастика, ужасы, 2015] HDRip, dvo

Dracon

254 | 16

1.45 ГБ

В этой теме нет новых непрочитанных сообщений. Паразит: Часть 1 / Kiseijû: Part 1 (Такаси Ямадзаки) [Фантастика, ужасы, 2014] WEB-DL 1080p, dvo

Dracon

433 | 16

2.92 ГБ

В этой теме нет новых непрочитанных сообщений. Паразит: Часть 1 / Kiseijû: Part 1 (Такаси Ямадзаки) [Фантастика, ужасы, 2014] WEB-DLRip, dvo

Dracon

642 | 54

1.42 ГБ

В этой теме нет новых непрочитанных сообщений. Паразит: Часть 2 / Kiseijû: Part 2 (Такаси Ямадзаки) [Фантастика, ужасы, 2015] BDRip 720p, dvo

Dracon

586 | 185

4.49 ГБ


Начать новую тему Ответить на тему  [ 1 сообщение ] 




Для Мосгорсуда, Роскомнадзора и рекламодателей:: mosgorsud-torrent[собачка]yandex.ru
cron
cron