Торрент файл
скачать торрент магнет ссылка Добавлен: 23 янв 2012, 21:27
Размер: 701.01 МБ
Сидеров: 9
Личеров: 5
Автор

СообщениеДобавлено: 23 янв 2012, 21:27 

Не в сети
Супермодератор
Аватара пользователя
Дата регистрации:
11 апр 2010, 18:10
Спасибо: 5995 / 7
Сообщения: 56685
Эндшпиль: Проект глобального порабощения / Endgame: Blueprint for Global Enslavement

Перевод: Профессиональный (одноголосый), cубтитры: отсутствуют
Формат: DVDRip, AVI, XviD, MP3
Страна: США / Magnolia Management
Режиссер: Алекс Джонс / Alex Jones
Жанр: Документальный, альтернативный мир
Продолжительность: 02:19:29
Год выпуска: 2007
В ролях: Jim Tucker, Daniel Estulin, Alex Jones, Michael Coffman, Col. Arthur Peterson, Ron Paul, Hank Gilbert, James Wolfensohn, David Rockefeller, Richard Holbrooke, George Pataki, Queen Beatrix, H.G. Wells, Aldous Huxley, Prince Bernhard of the Netherlands
Описание: В фильме рассказывается о группе «Билдерберг», которая состоит из сильных мира сего. Названа так по названию гостиницы, в котором проходило их первое заседание. Члены этой группы даже не те, кто у власти. Речь идёт о людях, которые стоят ЗА властью. В неё входят финансовые магнаты, такие как Рокфеллер, Билл Гейтс, видные политические деятели, такие как Маргарет Тетчер и прочие. Они хотят установить новый мировой порядок. Они, по сути, хотят установить феодальный строй. Согласно фильму, у них есть план: Во-первых, они хотят сократить количество населения до 500 миллионов. Для этого они добились использования пищи в качестве оружия... Также они спонсируют различные войны. Во-вторых, они стараются объединить все страны в одно государство, путём выпуска единых валют, таких как Евро, а также путём совмещения функций. Предполагается создание единого правительства. Понятное дело, кто будет за этим правительством. В-третьих, они организуют средства контроля за «рабами», чтобы подавлять восстания. Для этого они распрямляют дороги (чтобы легко было отслеживать перемещение населения), устанавливают камеры наблюдения (якобы, для защиты от террористов), снимают отпечатки пальцев, помещают чипы в паспорта, планируют вживлять специальные чипы под кожу и прочее. Причём, когда проводят прямые дороги, чтобы люди не возмущались, они скупают все средства массовой информации вдоль этой дороги и проводят соответствующие PR-кампании. В-четвёртых, они проводят различные химические опыты, в том числе и над людьми, чтобы разработать некое средство, которое позволит людям жить вечно. Надо уточнить, что жить вечно- лишь определённым людям...
Рейтинг на IMDB: 7.1/10
Видео: Xvid 576x320 25.00fps
Аудио: MPEG Audio Layer 3 44100Hz stereo 112Kbps
Доп. информация: Те, кому понравился нашумевший фильм Дух Времени (Zeitgeist) увидят здесь продолжение и развитие темы...

Рейтинг на 7.1/10
Рейтинг на 9.750



Имя файла : EndGame_DVDRip_Rus_[tfile.ru].avi
Размер файла : 701MB (735065992 bytes)

General
Complete name: EndGame_DVDRip_Rus_[tfile.ru].avi
Format: AVI
Format/Info: Audio Video Interleave
Format profile: OpenDML
File size: 701 MiB
Duration: 2h 19mn
Overall bit rate: 703 Kbps
Writing application: AVI-Mux GUI 1.17.8, Aug 30 200812:36:58

Video
Format: MPEG-4 Visual
Format profile: Streaming [email protected]
Format settings, BVOP: Yes
Format settings, QPel: No
Format settings, GMC: No warppoints
Format settings, Matrix: Custom
Codec ID: XVID
Codec ID/Hint: XviD
Duration: 2h 19mn
Bit rate: 582 Kbps
Width: 576 pixels
Height: 320 pixels
Display aspect ratio: 16/9
Frame rate: 25.000 fps
Resolution: 24 bits
Colorimetry: 4:2:0
Scan type: Progressive
Bits/(Pixel*Frame): 0.126
Stream size: 581 MiB (83%)
Writing library: XviD 1.2.0.dev47 (UTC 2006-11-01)

Audio
Format: MPEG Audio
Format version: Version 1
Format profile: Layer 3
Codec ID: 55
Codec ID/Hint: MP3
Duration: 2h 19mn
Bit rate mode: Constant
Bit rate: 112 Kbps
Channel(s): 2 channels
Sampling rate: 44.1 KHz
Resolution: 16 bits
Stream size: 112 MiB (16%)
Alignment: Aligned on interleaves
Interleave, duration: 26 ms (0.65 video frame)
Interleave, preload duration: 182 ms
Title: ENDGAME-русская дорожка















Спасибо можно сказать плюсом в ...
Поделиться:



Вернуться к началу
 Профиль Отправить личное сообщение  
 
   Похожие торренты   Автор   Торрент   Размер 
В этой теме нет новых непрочитанных сообщений. Адский эндшпиль / Operation: Endgame / Rogues Gallery [Боевик, комедия, 2010] BDRip 1080р, Mvo+Sub

salma3

52 | 9

7.11 ГБ

В этой теме нет новых непрочитанных сообщений. Мистер Джонс / Mr. Jones [драма, мелодрама, 1993] WEB-DL 720p, Mvo

salma3

83 | 26

3.82 ГБ

В этой теме нет новых непрочитанных сообщений. Алекс из Венеции / Alex of Venice [драма, 2014] BDRip, Mvo

salma3

65 | 13

1.47 ГБ

В этой теме нет новых непрочитанных сообщений. Алекс из Венеции / Alex of Venice [драма, 2014] HDRip, Mvo

salma3

13 | 57

1.47 ГБ

В этой теме нет новых непрочитанных сообщений. И пришел Джонс / Along Came Jones [Мелодрама, комедия, вестерн, 1945] DVDRip, Dvo

salma3

3 | 0

1.39 ГБ

В этой теме нет новых непрочитанных сообщений. Джаспер Джонс / Jasper Jones [триллер, драма, детектив, 2017] HDRip, Mvo

salma3

97 | 21

1.46 ГБ

В этой теме нет новых непрочитанных сообщений. Алекс Стрейнджлав / Alex Strangelove [комедия, 2018] WEBRip, Mvo [GreenРай Studio]

salma3

0 | 0

1.35 ГБ


Начать новую тему Ответить на тему  [ 1 сообщение ] 




Для Мосгорсуда, Роскомнадзора и рекламодателей:: mosgorsud-torrent[собачка]yandex.ru
cron