Торрент файл
скачать торрент магнет ссылка Добавлен: 23 янв 2012, 21:02
Размер: 2.97 ГБ
Сидеров: 5
Личеров: 6
Автор

СообщениеДобавлено: 23 янв 2012, 21:02 

Не в сети
Супермодератор
Аватара пользователя
Дата регистрации:
11 апр 2010, 18:10
Спасибо: 5995 / 7
Сообщения: 56685
Дух Времени: Следующий Шаг / Zeitgeist: Moving Forward


Перевод: Отсутствует
cубтитры: есть (русские)
Формат: DVDRip, AVI, H.264, MP3
Страна: США
Режиссер: Питер Джозеф
Жанр: документальный
Продолжительность: 02:41:25
Год выпуска: 2011
В ролях: Эштон Клайн, Жак Фреско, Питер Джозеф, Роксанна Медоуз, Майкл Рупперт

Описание: Zeitgeist: Moving Forward, документальный полнометражный фильм Питера Джозефа (Peter Joseph), в котором рассматривается вопрос необходимости перехода из действующей монетарной социально-экономической мировой системы. Раскрываемая в фильме тема выходит за пределы вопросов культурного релятивизма и традиционной идеологии, и чтобы обозначить основные точки эмпирической взаимосвязи человечества и природы, экстраполирует неизменные ценности естественных законов на новую парадигму устойчивого социально-экономического развития, которая называется “ресурсоориентированная экономика”.
В фильме принимают участие специалисты в области общественного здравоохранения, антропологии, нейропсихологии, экономики, энергетики, технологий, социальных наук и других соответствующих направлений, относящихся к общественной деятельности и культуре. Три центральные темы фильма – человеческое поведение, денежная экономика и прикладная наука. В целом фильм даѐт исчерпывающее понимание текущей социальной парадигмы; почему так важно выйти из неѐ – в сочетании с новым, радикальным, но всѐ же эффективным социальным подходом, который разрешил бы глобальные проблемы современности.



Мировой прокат
15 января 2011
США
Лос-Анджелес, Калифорния


Видео: 852x480 (1.77:1), 29.970 fps, AVC H264~2498 kbps avg, 0.20 bit/pixel
Аудио: 44.100 kHz, MPEG Layer 3, 2 ch, ~128.00 kbps avg


«Дух времени: Следующий шаг» состоит из четырёх частей. Каждая часть содержит интервью со специалистом и повествование на фоне анимации и документальных кадров.

Часть первая: Природа человека

Жак Фреско рассказывает о своем становлении. Поднимается вопрос о соотношении влияния на поведение человека окружающей среды и наследственной информации. Делается вывод о том, что окружающая природная и социальная среда являются определяющими на поведение человека, а вовсе не наследственность.

Часть вторая: Социальные болезни

Делается попытка критически взглянуть на экономическую модель общества, насколько действительно необходимы деньги, право частной собственности, различия экономических агентов. Делается предположение, что существующая модель приводит или к банкротству или к гиперинфляции. Обосновывается такой вывод на том допущении, что все деньги появляются в результате займов. Но деньги для уплаты процентов по этим займам не выпускаются и получить их можно якобы только в виде новых займов, что ведёт к экспоненциальному росту денежной массы и к снижению стоимости денег.

Часть третья: Проект Земля

Эта часть является продолжением рассмотрения идей Жака Фреско о «ресурсо-ориентированной экономике», которым было уделено много места во втором фильме Дух времени: Приложение. Ресурсы Земли должны быть учтены и распределяться для удовлетворение потребностей людей с максимальной эффективность. При этом деньги и работа ради денег уходят в прошлое. Производство и строительство максимально должны быть автоматизированы. Много внимания в фильме уделено энергетическим технологиям: фотогенерирующие краски, ветрогенераторы, пьезоэлектрический эффект, геотермальные источники энергии.

Часть четвёртая: Рост

Текущее состояние мировой дел описано в мрачном свете. Нефть рассматривается как угроза для прогресса цивилизации, потенциально приводящая к вымиранию. Загрязнение, обезлесение, изменения климата, перенаселение, войны — во всём обвиняется социально-экономическая система. По данным Организации Объединенных Наций, в настоящее время 18000 человек в день умирают от голода. Согласно ООН, глобальный уровень бедности увеличился в два раза с 1970 года. Сейчас разрыв между богатыми и бедными больше, чем когда-либо с начала промышленной революции. 1 % самых богатых людей владеют более чем 40 % богатств планеты. Согласно другим оценкам, 2 % самых богатых владеют более чем 50 % богатств планеты.

Фильм заканчивается противостояние в разгар глобального экономического кризиса между демонстрантами на улице Таймс-сквер в Нью-Йорке, столкнувшихся с полицией в защитном снаряжении. Кризис вызван тем, что люди по всему миру сняли со своих счетов деньги и это привело к краху экономики.


Формат: AVI
Видео
Идентификатор: 0
Формат: AVC
Формат/Информация: Advanced Video Codec
Профиль формата: [email protected]
Параметр CABAC формата: Да
Параметр ReFrames формата: 2 кадры
Идентификатор кодека: H264
Продолжительность: 2 ч. 41 м.
Битрейт: 2498 Кбит/сек
Ширина: 852 пикс.
Высота: 480 пикс.
Соотношение сторон: 16:9
Частота кадров: 29,970 кадр/сек
Цветовое пространство: YUV
Подвыборка цветности: 4:2:0
Битовая глубина: 8 бит
Тип развёртки: Прогрессивная
Бит/(Пиксели*Кадры): 0.204
Размер потока: 2,82 Гбайт (95%)

Аудио
Идентификатор: 1
Формат: MPEG Audio
Версия формата: Version 1
Профиль формата: Layer 3
Идентификатор кодека: 55
Идентификатор кодека/Подсказка: MP3
Продолжительность: 2 ч. 41 м.
Вид битрейта: Постоянный
Битрейт: 128 Кбит/сек
Канал(ы): 2 канала(ов)
Частота: 44,1 КГц
Метод сжатия: С потерями
Размер потока: 148 Мбайт (5%)






Поделиться:



Вернуться к началу
 Профиль Отправить личное сообщение  
 
   Похожие торренты   Автор   Торрент   Размер 
В этой теме нет новых непрочитанных сообщений. Теория Большого Взрыва / The Big Bang Theory [09x01-11 из 24] (Марк Сендроуски, Питер Чакос, Энтони Джозеф Рич) [2015, Ситком, комедия, HDTVRip 720p | Кураж-Бамбей]

marya111

8 | 10

5.03 ГБ

В этой теме нет новых непрочитанных сообщений. Теория Большого Взрыва / The Big Bang Theory [09x01-15 из 24] (Марк Сендроуски, Питер Чакос, Энтони Джозеф Рич) [2015, Ситком, комедия, HDTVRip 720p | Кураж-Бамбей]

Dracon

72 | 309

7.08 ГБ

В этой теме нет новых непрочитанных сообщений. Бегущая мишень / Moving Target [Боевик, 2000] DVDRip, Mvo

salma3

0 | 1

1.37 ГБ

В этой теме нет новых непрочитанных сообщений. Заплати другому / Pay It Forward [драма, 2000] WEB-DL 1080p, Dub+Avo+Sub

salma3

75 | 4

5.8 ГБ

В этой теме нет новых непрочитанных сообщений. Чич и Чонг: Следующий фильм. Укуренные заживо! / Cheech and Chong's Next Movie [комедия, криминал, 1980] WEB-DL 1080p, Avo

salma3

118 | 33

3.7 ГБ

В этой теме нет новых непрочитанных сообщений. [FTVMilfs.com] Milana (Fashion ForWard - What A Look!) [2018 г., Solo, Masturbation, Orgasm, Closeups, Toys, Vibrator, Public Nudity, 1080p]

salma3

0 | 1

5.79 ГБ

В этой теме нет новых непрочитанных сообщений. Движущиеся части / Moving Parts (2017) WEB-DLRip

Alfredovich

70 | 20

1.37 ГБ


Начать новую тему Ответить на тему  [ 1 сообщение ] 




Для Мосгорсуда, Роскомнадзора и рекламодателей:: mosgorsud-torrent[собачка]yandex.ru
cron