Торрент файл
скачать торрент магнет ссылка Добавлен: 23 янв 2012, 21:02
Размер: 1.06 ГБ
Сидеров: 119
Личеров: 7
Автор

СообщениеДобавлено: 23 янв 2012, 21:02 

Не в сети
Супермодератор
Аватара пользователя
Дата регистрации:
11 апр 2010, 18:10
Спасибо: 5995 / 7
Сообщения: 56685
Дух времени 3: Следующий шаг / Zeitgeist Moving Forward - 3

Перевод: Любительский (одноголосый, закадровый), cубтитры: отсутствуют
Формат: DVDRip, AVI, H264, AAC
Страна: США
Режиссер: Питер Джозеф
Жанр: документальный
Продолжительность: 02:41:36
Год выпуска: 2011

Описание: Продолжение фильмов "Дух времени 1" и"Дух времени 2: приложение".

Zeitgeist: Moving Forward, документальный полнометражный фильм Питера Джозефа (Peter Joseph), в котором рассматривается вопрос необходимости перехода из действующей монетарной социально-экономической мировой системы. Раскрываемая в фильме тема выходит за пределы вопросов культурного релятивизма и традиционной идеологии, и чтобы обозначить основные точки эмпирической взаимосвязи человечества и природы, экстраполирует неизменные ценности естественных законов на новую парадигму устойчивого социально-экономического развития, которая называется “ресурсоориентированная экономика”.
В фильме принимают участие специалисты в области общественного здравоохранения, антропологии, нейропсихологии, экономики, энергетики, технологий, социальных наук и других соответствующих направлений, относящихся к общественной деятельности и культуре. Три центральные темы фильма – человеческое поведение, денежная экономика и прикладная наука. В целом фильм даѐт исчерпывающее понимание текущей социальной парадигмы; почему так важно выйти из неѐ – в сочетании с новым, радикальным, но всѐ же эффективным социальным подходом, который разрешил бы глобальные проблемы современности.

Рейтинг на Кинопоиск:
Видео: 854x 478 (1.77:1), 25 fps, AVC [email protected] ~800 kbps avg, 0.079 bit/pixel
Аудио: 44.100 kHz, AAC LC, 2 ch, ~127.00 kbps avg
Трейлер:

Формат : MPEG-4
Профиль формата : Base Media
Идентификатор кодека : isom
Размер файла : 1,06 Гбайт
Продолжительность : 2 ч. 41 м.
Общий поток : 936 Кбит/сек
Программа кодирования : Lavf52.40.0

Видео
Идентификатор : 1
Формат : AVC
Формат/Информация : Advanced Video Codec
Профиль формата : [email protected]
Параметр CABAC формата : Да
Параметр ReFrames формата : 3 кадры
Идентификатор кодека : avc1
Идентификатор кодека/Информация : Advanced Video Coding
Продолжительность : 2 ч. 41 м.
Вид битрейта : Переменный
Битрейт : 800 Кбит/сек
Ширина : 854 пикс.
Высота : 478 пикс.
Соотношение сторон : 16:9
Режим частоты кадров : Переменный
Частота кадров : 24,952 кадр/сек
Частота кадров в оригинале : 25,000 кадр/сек
Минимальная частота кадров : 4,167 кадр/сек
Максимальная частота кадров : 25,000 кадр/сек
Цветовое пространство : YUV
Подвыборка цветности : 4:2:0
Битовая глубина : 8 бит
Тип развёртки : Прогрессивная
Бит/(Пиксели*Кадры) : 0.079
Размер потока : 929 Мбайт (86%)
Библиотека кодирования : x264 core 79
Язык : Russian

Аудио
Идентификатор : 2
Формат : AAC
Формат/Информация : Advanced Audio Codec
Профиль формата : LC
Идентификатор кодека : 40
Продолжительность : 2 ч. 41 м.
Вид битрейта : Переменный
Битрейт : 127 Кбит/сек
Канал(ы) : 2 канала(ов)
Расположение каналов : Front: L R
Частота : 44,1 КГц
Метод сжатия : С потерями
Размер потока : 147 Мбайт (14%)
Язык : Russian









Поделиться:



Вернуться к началу
 Профиль Отправить личное сообщение  
 
   Похожие торренты   Автор   Торрент   Размер 
В этой теме нет новых непрочитанных сообщений. Теория Большого Взрыва / The Big Bang Theory [09x01-11 из 24] (Марк Сендроуски, Питер Чакос, Энтони Джозеф Рич) [2015, Ситком, комедия, HDTVRip 720p | Кураж-Бамбей]

marya111

8 | 10

5.03 ГБ

В этой теме нет новых непрочитанных сообщений. Теория Большого Взрыва / The Big Bang Theory [09x01-15 из 24] (Марк Сендроуски, Питер Чакос, Энтони Джозеф Рич) [2015, Ситком, комедия, HDTVRip 720p | Кураж-Бамбей]

Dracon

72 | 309

7.08 ГБ

В этой теме нет новых непрочитанных сообщений. Бегущая мишень / Moving Target [Боевик, 2000] DVDRip, Mvo

salma3

0 | 1

1.37 ГБ

В этой теме нет новых непрочитанных сообщений. Заплати другому / Pay It Forward [драма, 2000] WEB-DL 1080p, Dub+Avo+Sub

salma3

75 | 4

5.8 ГБ

В этой теме нет новых непрочитанных сообщений. Чич и Чонг: Следующий фильм. Укуренные заживо! / Cheech and Chong's Next Movie [комедия, криминал, 1980] WEB-DL 1080p, Avo

salma3

118 | 33

3.7 ГБ

В этой теме нет новых непрочитанных сообщений. [FTVMilfs.com] Milana (Fashion ForWard - What A Look!) [2018 г., Solo, Masturbation, Orgasm, Closeups, Toys, Vibrator, Public Nudity, 1080p]

salma3

0 | 1

5.79 ГБ

В этой теме нет новых непрочитанных сообщений. Движущиеся части / Moving Parts (2017) WEB-DLRip

Alfredovich

70 | 20

1.37 ГБ


Начать новую тему Ответить на тему  [ 1 сообщение ] 




Для Мосгорсуда, Роскомнадзора и рекламодателей:: mosgorsud-torrent[собачка]yandex.ru
cron