Торрент файл
скачать торрент магнет ссылка Добавлен: 23 янв 2012, 20:52
Размер: 499.99 МБ
Сидеров: 0
Личеров: 5
Автор

СообщениеДобавлено: 23 янв 2012, 20:52 

Не в сети
Супермодератор
Аватара пользователя
Дата регистрации:
11 апр 2010, 18:10
Спасибо: 5995 / 7
Сообщения: 56685
Молочные реки. Правила жизни

Перевод: Профессиональный (многоголосый, закадровый), cубтитры: отсутствуют
Формат: TVRip, AVI, XviD, MP3
Страна: Украина
Режиссер: Светлана Мамонтова
Жанр: документальный
Продолжительность: 0.48.55
Год выпуска: 2010
В ролях: Валентина Кульчицкая, Наталья Скалозуб, Ростислав Романюк

Описание: Считается, что молоко один из самых полезных для нашего здоровья продуктов... Но сегодня, натурального молока и молочных продуктов практически нет! Их заменили смеси! не полезные, а иногда даже опасные для организма. Мы проверили пять образцов сметаны, и сметаны там не нашли! Чтоб молоко не прокисало- добавляют соду(образуется аммиак). Как отличить настоящее молоко от подделки, правда ли, что йогурты полезны? Из чего состоит сливочное масло? и как не отравиться молочной едой? Человек пил всю жизнь молоко и умер от цирроза печени... Молочные закваски на фекалиях... Обогащение молока растительными жирами... Скот пасущийся возле магистралей- тяжёлые металлы в молоке, домашнее молоко не менее опасно нежели магазинное, чтобы продлить жизнь молока продавцы применяют разнообразные примеси... Как домашнее молоко убило советскую актрису Екатерину Савенову... Молоко с возрастом усваивается всё хуже и провоцирует образование камней в почках...

Видео: 352x288 (1.22:1), 25 fps, XviD build 50 ~1200 kbps avg, 0.47 bit/pixel
Аудио: 32 kHz, Microsoft MPEG, 2 ch, ~224.00 kbps avg

General
Complete name: E:\torrents\molochniye_reki_pravila_zhizni_[tfile.ru].avi
Format: AVI
Format/Info: Audio Video Interleave
File size: 500 MiB
Duration: 48mn 55s
Overall bit rate: 1 429 Kbps
Writing application: MEncoder SVN-r29352(20090610-gcc4.3.3)
Writing library: MPlayer

Video
ID: 0
Format: MPEG-4 Visual
Format profile: Advanced [email protected]
Format settings, BVOP: 1
Format settings, QPel: No
Format settings, GMC: No warppoints
Format settings, Matrix: Default (H.263)
Codec ID: XVID
Codec ID/Hint: XviD
Duration: 48mn 55s
Bit rate: 1 199 Kbps
Width: 352 pixels
Height: 288 pixels
Display aspect ratio: 4:3
Frame rate: 25.000 fps
Standard: PAL
Color space: YUV
Chroma subsampling: 4:2:0
Bit depth: 8 bits
Scan type: Progressive
Compression mode: Lossy
Bits/(Pixel*Frame): 0.473
Stream size: 420 MiB (84%)
Writing library: XviD 1.2.1 (UTC 2008-12-04)

Audio
ID: 1
Format: MPEG Audio
Format version: Version 1
Format profile: Layer 2
Codec ID: 50
Duration: 48mn 55s
Bit rate mode: Constant
Bit rate: 224 Kbps
Channel(s): 2 channels
Sampling rate: 32.0 KHz
Compression mode: Lossy
Delay relative to video: 40ms
Stream size: 78.4 MiB (16%)
Alignment: Split accross interleaves
Interleave, duration: 500 ms (12.50 video frames)
Interleave, preload duration: 500 ms






Поделиться:



Вернуться к началу
 Профиль Отправить личное сообщение  
 
   Похожие торренты   Автор   Торрент   Размер 
В этой теме нет новых непрочитанных сообщений. Молочные узы / Doodh Ka Karz [Боевик, триллер, мелодрама, криминал, 1990] DVDRip, Avo

salma3

0 | 0

2.05 ГБ

В этой теме нет новых непрочитанных сообщений. Братья и птицы (Светлана Быченко) [2013, документальный, приключения, природа, HDRip 720р]

salma3

0 | 0

1.08 ГБ

В этой теме нет новых непрочитанных сообщений. Big Milky Boobs 3 / Большие Молочные Сиськи 3 (Elegant Angel) [2017 г., All Sex, Big Boobs, Boxed Sets, Compilation, DVDRip]

salma3

9 | 3

10.74 ГБ

В этой теме нет новых непрочитанных сообщений. Из жизни животных / Tendresses animales (1-4 серии из 4) [документальный, познавательный, флора, фауна, 2014] SATRip, Avo

salma3

9 | 10

3.1 ГБ

В этой теме нет новых непрочитанных сообщений. BBC. Семь периодов жизни звезды [2 серии из 2] / BBC. Seven Ages of Starlight (Габи Хорнсби) [2012, документальный, SATRip]

salma3

2 | 2

1.22 ГБ

В этой теме нет новых непрочитанных сообщений. Реки / Day / Rives [драма, 2011] IPTVRip, Dvo

salma3

15 | 2

1.46 ГБ

В этой теме нет новых непрочитанных сообщений. По течению реки / Follow the River [Драма, Приключения, 1995] DVDRip, Mvo

salma3

87 | 46

1.5 ГБ


Начать новую тему Ответить на тему  [ 1 сообщение ] 




Для Мосгорсуда, Роскомнадзора и рекламодателей:: mosgorsud-torrent[собачка]yandex.ru
cron